новый адрес
Мега распродажа FORZA HORIZON 4 ULTIMATE+ВСЕ DLC+ОНЛАЙН всего за 499р. 349 руб. (супер цена). Внимание количество ограничено!!!

iTunes

1+1

iTunes

мы

iTunes

1

iTunes

Чернобыль

iTunes

Ральф против интернета

Лицензия

ПШазам

Лицензия

Оно 2

Лицензия

30
pack

ВАЖНО

!!Акция!!

Alien_RageХит недели

RePack

Resident Evil 21

ИГРА 18+

pack

RePack

Metro:Exodus

!!Акция!!

Alien_Rage

RePack

fifa19

RePack

Assassins Creed: Odyssey

RePack

NEED FOR SPEED™ PAYBACK

3 сезон

9 сезон

Бесстыжие 9 сезон

Все сериалы

все сериалы на PB.wtf

RePack

FAR CRY 5
Ребята, катастрофически не хватает 1900р. для оплаты серверов за Октябрь (всвязи с блокировками трафик упал в 3 раза), 1-2р., выручайте.
  

Гусарская Баллада (Эльдар Рязанов) [1962, СССР, мюзикл, комедия, BDRip от AVP Studio] pb.wtf

Гусарская Баллада через торрент pb.wtf

Размер: 1.46 GB | Добавлен: 10 мес. назад | Торрент скачан:9 раз
Скачать  

29-12-2018 09:56 Гусарская Баллада Скачать торрент  

Гусарская Баллада
Страна: СССР
Производство: Мосфильм

Жанр: мюзикл, комедия
Год выпуска: 1962
Продолжительность: 01:30:17

Перевод: Не требуется
Cубтитры: нет
Оригинальная аудиодорожка: русский

Режиссер: Эльдар Рязанов

В ролях:
Лариса Голубкина, Юрий Яковлев, Игорь Ильинский, Николай Крючков, Татьяна Шмыга, Юрий Белов, Владимир Гусев, Виктор Кольцов, Роман Хомятов, Антоний Ходурский, Лев Поляков, Михаил Орлов, Владимир Трошин, Борис Иванов, Юрий Мартынов, Алексей Полевой, Владимир Балон, Валентин Брылеев...
Об актёрах подробней

Описание:
Исторический анекдот, удачно и к месту рассказанный, всегда найдет благодарных слушателей, а, тем более, зрителей. История девицы-корнета, желающей наравне с мужчинами защищать отечество, была счастливо вспомнена драматургом А. Гладковым, воплощена им в комедии «Давным-давно» и экранизирована Э. Рязановым в 1962 — к 150-летнему юбилею победы над Наполеоном.
Все удачно сложилось в этом киноводевиле: и знакомый сюжет, изобилующий приключениями, переодеваниями, интригами, и замечательная, использующая характерные жанровые модели — романса, баллады, гусарской песни — музыка Т. Хренникова, и звездный актерский ансамбль...

Исходник: Blu-ray 1080p
Тип релиза:BDRip
Контейнер: AVI

Видео: 720x544 (4:3), 23,976 кадров/сек, XviD ~ 1759 kbps avg, 0.187 bit/pixel
Аудио: 48 kHz, Dolby Digital AC3 5.1, 448 kbps
Аудио: 48 kHz, Dolby Digital AC3 1.0, 192 kbps Скачать оригинальный звук

Раздача от:
Общее
Полное имя : Gusarskaya.ballada.1962.BDRip_[New-team]_by_AVP_Studio.avi
Формат : AVI
Формат/Информация : Audio Video Interleave
Размер файла : 1,46 Гбайт
Продолжительность : 1 ч. 34 м.
Общий поток : 2217 Кбит/сек
Программа кодирования : VirtualDubMod 1.5.10.3 | www.virtualdub-fr.org || (build 2550/release)
Библиотека кодирования : VirtualDubMod build 2550/release

Видео
Идентификатор : 0
Формат : MPEG-4 Visual
Профиль формата : Advanced Simple@L5
Настройки формата : BVOP1 / Custom Matrix
Параметр BVOP формата : 1
Параметр QPel формата : Нет
Параметр GMC формата : Без точки перехода
Параметр матрицы формата : Выборочная
Идентификатор кодека : XVID
Идентификатор кодека/Подсказка : XviD
Продолжительность : 1 ч. 34 м.
Битрейт : 1759 Кбит/сек
Ширина : 720 пикселей
Высота : 544 пикселя
Соотношение сторон : 4:3
Частота кадров : 23,976 (24000/1001) кадра/сек
Цветовое пространство : YUV
Субдискретизация насыщенности : 4:2:0
Битовая глубина : 8 бит
Тип развёртки : Прогрессивная
Метод сжатия : С потерями
Бит/(Пиксели*Кадры) : 0.187
Размер потока : 1,16 Гбайт (79%)
Библиотека кодирования : XviD 73

Аудио
Идентификатор : 1
Формат : AC-3
Формат/Информация : Audio Coding 3
Коммерческое название : Dolby Digital
Идентификатор кодека : 2000
Продолжительность : 1 ч. 34 м.
Вид битрейта : Постоянный
Битрейт : 448 Кбит/сек
Каналы : 6 каналов
Channel layout : L R C LFE Ls Rs
Частота : 48,0 КГц
Частота кадров : 31,250 кадров/сек (1536 SPF)
Битовая глубина : 16 бит
Метод сжатия : С потерями
Размер потока : 302 Мбайт (20%)
Выравнивание : Разделение по промежуткам
Продолжительность промежутка : 42 мс. (1,00 видеокадр)
Время предзагрузки промежутка : 500 мс
pb.wtf



Скачать Гусарская Баллада через торрент http://picplus.ru/img/1812/27/43d90c74.png Скачать фильм Гусарская Баллада через торрент бесплантно в хорошем качестве Описание:Исторический анекдот, удачно и к месту рассказанный, всегда найдет благодарных слушателей, а, тем более, зрителей. История ... 5 10 1
Info! Золотая раздача, скачанное не засчитывается.
Торрент: Зарегистрирован [2018-12-29 09:56] · скачан: 9 раз
Статус: √ проверено
Размер: 1.46 GB
Как cкачать? Как скачать Гусарская Баллада через торрент | qTorrent

% Раздел Тема Автор DL S | L
Кино СССР [ 1.46 GB ] Гусарская Баллада [1962 СССР мюзикл BDRip-AVC от AVP Studio] AVP Studio Скачать
1 | 0
Кино СССР [ 4.37 GB ] Гусарская Баллада [1962 СССР мюзикл BDRip 1080p от AVP Studio] AVP Studio Скачать
1 | 0
Кино СССР [ 2.18 GB ] Гусарская Баллада [1962 СССР мюзикл BDRip 720p от AVP Studio] AVP Studio Скачать
1 | 0


>> Регистрируемся здесь <<






Отзывы и комментарии о схеме читаем и пишем здесь: ---> Отзывы и комментарии о схеме

Новые благодарочки в телеграм довольных пользователей:
скриншот   скриншот   скриншот   скриншот   скриншот
    Дорогой пользователь! Огромная просьба, поблагодарите релизера, оцените раздачу и оставьте свои комментарий, если Вы скачали Гусарская Баллада через торрент бесплатно! Внесите свою лепту в развитие PiratBit!
    Комментировать посты могут только пользователи прошедшие не сложную регистрацию
    Показать сообщения:    

    Гусарская Баллада через торрент
    Скачать бесплатно Гусарская Баллада
    Гусарская Баллада скачать торрент
    Гусарская Баллада смотреть онлайн
    Cкачать фильм Гусарская Баллада бесплатно
    Гусарская Баллада скачать торрент в хорошем качестве
    Гусарская Баллада смотреть онлайн бесплатно в хорошем качестве


    Вы не можете начинать темы
    Вы не можете отвечать на сообщения
    Вы не можете редактировать свои сообщения
    Вы не можете удалять свои сообщения
    Вы не можете голосовать в опросах
    Вы не можете прикреплять файлы к сообщениям
    Вы можете скачивать файлы