новый адрес
Мега распродажа FORZA HORIZON 4 ULTIMATE+ВСЕ DLC+ОНЛАЙН всего за 499р. 349 руб. (супер цена). Внимание количество ограничено!!!

iTunes

1+1

iTunes

мы

iTunes

1

iTunes

Чернобыль

iTunes

Ральф против интернета

Лицензия

ПШазам

Лицензия

Оно 2

Лицензия

30
pack

ВАЖНО

!!Акция!!

Alien_RageХит недели

RePack

Resident Evil 21

ИГРА 18+

pack

RePack

jed

!!Акция!!

Alien_Rage

RePack

fifa19

RePack

Assassins Creed: Odyssey

RePack

NEED FOR SPEED™ PAYBACK

3 сезон

9 сезон

Бесстыжие 9 сезон

Все сериалы

все сериалы на PB.wtf

RePack

FAR CRY 5
Ребята, катастрофически не хватает 1900р. для оплаты серверов за Октябрь (всвязи с блокировками трафик упал в 3 раза), 1-2р., выручайте.
  

Гусарская Баллада (Эльдар Рязанов) [1962, СССР, мюзикл, комедия, BDRip-AVC от AVP Studio] pb.wtf

Гусарская Баллада через торрент pb.wtf

Раздают: 1 [ 0 KB/s ]
Размер: 1.46 GB | Добавлен: 10 мес. назад | Торрент скачан:23 раза
Скачать  

29-12-2018 09:59 Гусарская Баллада Скачать торрент  

Гусарская Баллада
Страна: СССР
Производство: Мосфильм

Жанр: мюзикл, комедия
Год выпуска: 1962
Продолжительность: 01:30:17

Перевод: Не требуется
Cубтитры: нет
Оригинальная аудиодорожка: русский

Режиссер: Эльдар Рязанов

В ролях:
Лариса Голубкина, Юрий Яковлев, Игорь Ильинский, Николай Крючков, Татьяна Шмыга, Юрий Белов, Владимир Гусев, Виктор Кольцов, Роман Хомятов, Антоний Ходурский, Лев Поляков, Михаил Орлов, Владимир Трошин, Борис Иванов, Юрий Мартынов, Алексей Полевой, Владимир Балон, Валентин Брылеев...
Об актёрах подробней

Описание:
Исторический анекдот, удачно и к месту рассказанный, всегда найдет благодарных слушателей, а, тем более, зрителей. История девицы-корнета, желающей наравне с мужчинами защищать отечество, была счастливо вспомнена драматургом А. Гладковым, воплощена им в комедии «Давным-давно» и экранизирована Э. Рязановым в 1962 — к 150-летнему юбилею победы над Наполеоном.
Все удачно сложилось в этом киноводевиле: и знакомый сюжет, изобилующий приключениями, переодеваниями, интригами, и замечательная, использующая характерные жанровые модели — романса, баллады, гусарской песни — музыка Т. Хренникова, и звездный актерский ансамбль...

Исходник: Blu-ray 1080p
Тип релиза:BDRip-AVC
Контейнер: MKV

Видео: 792x576 (4:3), 23,976 кадров/сек, H264 ~ 1768 kbps avg, 0.162 bit/pixel
Аудио: 48 kHz, Dolby Digital AC3 5.1, 448 kbps
Аудио: 48 kHz, Dolby Digital AC3 1.0, 192 kbps Скачать оригинальный звук

Раздача от:
Общее
Полное имя : Gusarskaya.ballada.1962.BDRip-AVC_[New-team]_by_AVP_Studio.mkv
Формат : Matroska
Версия формата : Version 2
Размер файла : 1,46 Гбайт
Продолжительность : 1 ч. 34 м.
Общий поток : 2218 Кбит/сек
Дата кодирования : UTC 2018-12-29 05:22:27
Программа кодирования : mkvmerge v6.1.0 ('Old Devil') built on Mar 4 2013 09:10:42
Библиотека кодирования : libebml v1.3.0 + libmatroska v1.4.0

Видео
Идентификатор : 1
Формат : AVC
Формат/Информация : Advanced Video Codec
Профиль формата : High@L4.1
Настройки формата : CABAC / 10 Ref Frames
Параметр CABAC формата : Да
Параметр RefFrames формата : 10 кадров
Идентификатор кодека : V_MPEG4/ISO/AVC
Продолжительность : 1 ч. 34 м.
Битрейт : 1768 Кбит/сек
Ширина : 792 пикселя
Высота : 576 пикселей
Соотношение сторон : 4:3
Режим частоты кадров : Постоянный
Частота кадров : 23,976 (24000/1001) кадра/сек
Цветовое пространство : YUV
Субдискретизация насыщенности : 4:2:0
Битовая глубина : 8 бит
Тип развёртки : Прогрессивная
Бит/(Пиксели*Кадры) : 0.162
Размер потока : 1,13 Гбайт (78%)
Библиотека кодирования : x264 core 157 r2932 303c484
Настройки программы : cabac=1 / ref=10 / deblock=1:-3:-2 / analyse=0x3:0x113 / me=umh / subme=10 / psy=1 / psy_rd=1.00:0.00 / mixed_ref=1 / me_range=32 / chroma_me=1 / trellis=2 / 8x8dct=1 / cqm=0 / deadzone=21,11 / fast_pskip=1 / chroma_qp_offset=-2 / threads=6 / lookahead_threads=1 / sliced_threads=0 / nr=0 / decimate=0 / interlaced=0 / bluray_compat=0 / constrained_intra=0 / bframes=8 / b_pyramid=2 / b_adapt=2 / b_bias=0 / direct=3 / weightb=1 / open_gop=0 / weightp=2 / keyint=240 / keyint_min=24 / scenecut=40 / intra_refresh=0 / rc_lookahead=40 / rc=2pass / mbtree=1 / bitrate=1768 / ratetol=1.0 / qcomp=0.60 / qpmin=0 / qpmax=69 / qpstep=4 / cplxblur=20.0 / qblur=0.5 / ip_ratio=1.40 / aq=1:1.00
Default : Да
Forced : Нет

Аудио
Идентификатор : 2
Формат : AC-3
Формат/Информация : Audio Coding 3
Коммерческое название : Dolby Digital
Идентификатор кодека : A_AC3
Продолжительность : 1 ч. 34 м.
Вид битрейта : Постоянный
Битрейт : 448 Кбит/сек
Каналы : 6 каналов
Channel layout : L R C LFE Ls Rs
Частота : 48,0 КГц
Частота кадров : 31,250 кадров/сек (1536 SPF)
Битовая глубина : 16 бит
Метод сжатия : С потерями
Размер потока : 302 Мбайт (20%)
Default : Да
Forced : Нет
pb.wtf



Скачать Гусарская Баллада через торрент http://picplus.ru/img/1812/27/43d90c74.png Скачать фильм Гусарская Баллада через торрент бесплантно в хорошем качестве Описание:Исторический анекдот, удачно и к месту рассказанный, всегда найдет благодарных слушателей, а, тем более, зрителей. История ... 10 10 1
Info! Золотая раздача, скачанное не засчитывается.
Торрент: Зарегистрирован [2018-12-29 09:59] · скачан: 23 раз
Статус: √ проверено
Размер: 1.46 GB
Как cкачать? Как скачать Гусарская Баллада через торрент | qTorrent

% Раздел Тема Автор DL S | L
Кино СССР [ 4.37 GB ] Гусарская Баллада [1962 СССР мюзикл BDRip 1080p от AVP Studio] AVP Studio Скачать
1 | 0
Кино СССР [ 2.18 GB ] Гусарская Баллада [1962 СССР мюзикл BDRip 720p от AVP Studio] AVP Studio Скачать
1 | 0
Кино СССР [ 1.46 GB ] Гусарская Баллада [1962 СССР мюзикл BDRip от AVP Studio] AVP Studio Скачать
1 | 0


>> Регистрируемся здесь <<






Отзывы и комментарии о схеме читаем и пишем здесь: ---> Отзывы и комментарии о схеме

Новые благодарочки в телеграм довольных пользователей:
скриншот   скриншот   скриншот   скриншот   скриншот
    Дорогой пользователь! Огромная просьба, поблагодарите релизера, оцените раздачу и оставьте свои комментарий, если Вы скачали Гусарская Баллада через торрент бесплатно! Внесите свою лепту в развитие PiratBit!
    Комментировать посты могут только пользователи прошедшие не сложную регистрацию
    Показать сообщения:    

    Гусарская Баллада через торрент
    Скачать бесплатно Гусарская Баллада
    Гусарская Баллада скачать торрент
    Гусарская Баллада смотреть онлайн
    Cкачать фильм Гусарская Баллада бесплатно
    Гусарская Баллада скачать торрент в хорошем качестве
    Гусарская Баллада смотреть онлайн бесплатно в хорошем качестве


    Вы не можете начинать темы
    Вы не можете отвечать на сообщения
    Вы не можете редактировать свои сообщения
    Вы не можете удалять свои сообщения
    Вы не можете голосовать в опросах
    Вы не можете прикреплять файлы к сообщениям
    Вы можете скачивать файлы