Ссылка на приватное зеркало нашего сайта всего за 1$. Внимание количество ограничено!!!

2 сезон

iTunes

1 сезон

1

2 сезон

2 сезон

iTunes

1 сезон

RePack

30

Ultimate

ВАЖНО

ИГРА 18+

pack

RePack

MK11
pack

Забери бонус

RePack

jed

!!Акция!!

Alien_Rage

RePack

fifa19

RePack

Assassins Creed: Odyssey

RePack

NEED FOR SPEED™ PAYBACK

4 сезон

9 сезон

Бесстыжие 9 сезон

Все сериалы

все сериалы на PB.wtf

RePack

FAR CRY 5
  

Смерть и соловьи / Death and Nightingales / Сезон: 1 / Серии: 1-3 из 3 (Аллан Кабитт / Allan Cubitt) [2018, Драма, HDTVRip] [MVO] (NewStudio) pb.wtf

Смерть и соловьи через торрент pb.wtf

Размер: 2.08 GB | Добавлен: 1 год 10 мес. назад | Торрент скачан:4 раза
Скачать  

29-12-2018 13:32 Смерть и соловьи Скачать торрент  

Смерть и соловьи | Death and Nightingales
Год выпуска: 2018
Страна: Великобритания
Жанр: Драма
Продолжительность: ~ 00:58:00
Перевод: Профессиональный (многоголосый закадровый) | NewStudio
Режиссёр: Аллан Кабитт / Allan Cubitt
В ролях: Мэттью Риз, Энн Скелли, Джейми Дорнан, Валин Кэйн, Шарлин МакКенна, Мартин МакКанн, Derek Dubery, Френсис Маджи, Шон МакГинли, Майкл Смайли
Описание: Действие разворачивается в сельской глубинке Северной Ирландии конца XIX века. Молодая женщина Бет Уинтерс пытается взять под контроль собственную судьбу и сбежать от сложных отношений с отчимом вместе с обаятельным молодым человеком по имени Лиам.
скриншот  

Качество: HDTVRip
Формат: AVI
Видео: XviD, 704x352, 25,000 кадра/сек, ~1300-1500 Кбит/сек
Аудио Rus: MP3, 48 kHz, 2 ch, 128 Кбит/сек | NewStudio
Аудио Eng: MP3, 48 kHz, 2 ch, 128 Кбит/сек
Субтитры: Отсутствуют
Общее
Полное имя : E:\Death and Nightingales (Season 1) HDTVRip\Death.And.Nightingales.s01e01.HDTVRip.RGzsRutracker.[Wentworth_Miller].avi
Формат : AVI
Формат/Информация : Audio Video Interleave
Размер файла : 751 Мбайт
Продолжительность : 58 м. 32 с.
Общий поток : 1793 Кбит/сек
Программа кодирования : VirtualDubMod 1.5.10.3 | www.virtualdub-fr.org || (build 2550/release)
Библиотека кодирования : VirtualDubMod build 2550/release

Видео
Идентификатор : 0
Формат : MPEG-4 Visual
Профиль формата : Advanced Simple@L5
Настройки формата : BVOP2
Параметр BVOP формата : 2
Параметр QPel формата : Нет
Параметр GMC формата : Без точки перехода
Параметр матрицы формата : Default (MPEG)
Идентификатор кодека : XVID
Идентификатор кодека/Подсказка : XviD
Продолжительность : 58 м. 32 с.
Битрейт : 1522 Кбит/сек
Ширина : 704 пикселя
Высота : 352 пикселя
Соотношение сторон : 2,000
Частота кадров : 25,000 кадров/сек
Цветовое пространство : YUV
Субдискретизация насыщенности : 4:2:0
Битовая глубина : 8 бит
Тип развёртки : Прогрессивная
Метод сжатия : С потерями
Бит/(Пиксели*Кадры) : 0.246
Размер потока : 637 Мбайт (85%)
Библиотека кодирования : XviD 61

Аудио #1
Идентификатор : 1
Формат : MPEG Audio
Версия формата : Version 1
Профиль формата : Layer 3
Идентификатор кодека : 55
Идентификатор кодека/Подсказка : MP3
Продолжительность : 58 м. 32 с.
Вид битрейта : Постоянный
Битрейт : 128 Кбит/сек
Каналы : 2 канала
Частота : 48,0 КГц
Частота кадров : 41,667 кадра/сек (1152 SPF)
Метод сжатия : С потерями
Размер потока : 53,6 Мбайт (7%)
Выравнивание : Соединение по промежуткам
Продолжительность промежутка : 40 мс. (1,00 видеокадр)
Время предзагрузки промежутка : 504 мс.
Библиотека кодирования : LAME3.98r
Настройки программы : -m s -V 4 -q 2 -lowpass 17 -b 128

Аудио #2
Идентификатор : 2
Формат : MPEG Audio
Версия формата : Version 1
Профиль формата : Layer 3
Настройки формата : Joint stereo / MS Stereo
Идентификатор кодека : 55
Идентификатор кодека/Подсказка : MP3
Продолжительность : 58 м. 32 с.
Вид битрейта : Постоянный
Битрейт : 128 Кбит/сек
Каналы : 2 канала
Частота : 48,0 КГц
Метод сжатия : С потерями
Размер потока : 53,6 Мбайт (7%)
Выравнивание : Соединение по промежуткам
Продолжительность промежутка : 40 мс. (1,00 видеокадр)
Время предзагрузки промежутка : 504 мс.

скриншот  скриншот  скриншот  

pb.wtf



Скачать Смерть и соловьи через торрент https://i107.fastpic.ru/big/2018/1211/86/df94a6f549b60121c68dfcd5c9ab6b86.png Скачать фильм Смерть и соловьи через торрент бесплантно в хорошем качестве Описание: Действие разворачивается в сельской глубинке Северной Ирландии конца XIX века. Молодая женщина Бет Уинтерс пытается взять под ... 5 10 1
Торрент: Зарегистрирован [2018-12-29 13:32] · скачан: 4 раз
Статус: √ проверено
Размер: 2.08 GB
Как cкачать? Как скачать Смерть и соловьи через торрент | qTorrent

% Раздел Тема Автор DL S | L
Зарубежные сериалы [ 2.25 GB ] Смерть и соловьи / Death and Nightingales / Сезон: 1 / Серии: 1-3 из 3 [2018 HDTV 720p] [MVO] killermax2013 Скачать
1 | 0

28-11-2019 20:33  

Отключить всю рекламу на сайте

    Дорогой пользователь! Огромная просьба, поблагодарите релизера, оцените раздачу и оставьте свои комментарий, если Вы скачали Смерть и соловьи через торрент бесплатно! Внесите свою лепту в развитие PiratBit!
    Комментировать посты могут только пользователи прошедшие не сложную регистрацию
    Показать сообщения:    

    Смерть и соловьи через торрент
    Скачать бесплатно Смерть и соловьи
    Смерть и соловьи скачать торрент
    Смерть и соловьи смотреть онлайн
    Cкачать фильм Смерть и соловьи бесплатно
    Смерть и соловьи скачать торрент в хорошем качестве
    Смерть и соловьи смотреть онлайн бесплатно в хорошем качестве


    Вы не можете начинать темы
    Вы не можете отвечать на сообщения
    Вы не можете редактировать свои сообщения
    Вы не можете удалять свои сообщения
    Вы не можете голосовать в опросах
    Вы не можете прикреплять файлы к сообщениям
    Вы можете скачивать файлы