Ссылка на приватное зеркало нашего сайта всего за 1$. Внимание количество ограничено!!!

2 сезон

iTunes

1 сезон

1

2 сезон

2 сезон

iTunes

1 сезон

RePack

30

Ultimate

ВАЖНО

ИГРА 18+

pack

RePack

MK11
pack

Забери бонус

RePack

jed

!!Акция!!

Alien_Rage

RePack

fifa19

RePack

Assassins Creed: Odyssey

RePack

NEED FOR SPEED™ PAYBACK

4 сезон

9 сезон

Бесстыжие 9 сезон

Все сериалы

все сериалы на PB.wtf

RePack

FAR CRY 5
  

Тиран / Tyrant / Сезон: 1-3 / Серии: 1-30 из 30 (Дэвид Йэтс) [2014-2016, боевик, триллер, драма , WEB-DLRip] [MVO] (NewStudio) pb.wtf

Тиран через торрент pb.wtf

Качают: 1 [ 72 KB/s ]
Размер: 18.51 GB | Добавлен: 1 год 10 мес. назад | Торрент скачан:15 раз
Скачать  

29-12-2018 14:38 Тиран Скачать торрент  


Тиран / Tyrant

Год выпуска: 2014-2016
Страна: США, FX
Кинокомпания: Fox 21, Keshet Broadcasting, Teakwood Lane Productions
Жанр: боевик, триллер, драма
Продолжительность: серия ~ 00:46:00
Перевод: Профессиональный (многоголосый закадровый) / NewStudio

Режиссер: Дэвид Йэтс
Сценарий: Ховард Гордон, Гидеон Рафф, Крэйг Райт
Продюсер: Хью Фицпатрик, Ховард Гордон, Майкл Леманн
Оператор: Итай Не’еман, Аттила Салаи, Авраам Карпик
Композитор: Джефф Дэнна, Майкл Дэнна
Художник: СиСи ДеСтефано, Идо Долев, Донал Вудс
Монтаж: Дон Бройда, Сэнг Хань, Сондра Ватанабэ


В ролях: Адам Рэйнер / Adam Rayner (Barry Al-Fayeed), Дженнифер Финниган / Jennifer Finnigan (Molly Al-Fayeed), Энн Уинтерс / Anne Winters (Emma Al-Fayeed), Ашраф Бархом / Ashraf Barhom (Jamal Al-Fayeed), Ной Сильвер / Noah Silver (Sammy Al-Fayeed), Фарес Фарес / Fares Fares (Fauzi Nadal), Моран Атиас / Moran Atias (Leila Al-Fayeed), Салим Дау / Salim Dau (Yussef)


Описание:Сюжет Тирана разворачивается в самой политически неустойчивой и взрывоопасной точке нашего мира — на Ближнем Востоке, где, как известно, сосредоточено множество военных конфликтов (от гражданской войны в Сирии до бесконечного арабо-израильского противостояния). Главный герой Бассам «Барри» Аль Фаед, сын ближневосточного диктатора, разумеется, вымышленного арабского государства Балади (хотя особенно внимательные зрители узнают в кадре ландшафты Израиля). Он жил своей собственной жизнью в Лос-Анджелесе около 20 лет, женился на американке. Но судьба заставила его вернуться на родную землю.


rating


Релиз группы:

Перевод: Юлия Мейер
Озвучание: Владимир Курдов, Николай Быстров, Константин Погодаев, Инна Королева.
Качество: WEB-DLRip
Формат: AVI
Видео: 720x400 (1.76:1), 25 fps, XviD ~1700 kbps avg, 0.19 bit/pixel
Аудио #1: MP3, 48.0 KHz, 2 ch, 128 Kbps, CBR - RUS
Аудио #2: MP3, 48.0 KHz, 2 ch, 128 Kbps, CBR - ENG
Субтитры: Отсутствуют
General
Complete name : E:\Tyrant.S01-S03.WEB-DLRip.NewStudio\S1\Tyrant.S01E01.webdl.NewStudio.TV.avi
Format : AVI
Format/Info : Audio Video Interleave
File size : 700 MiB
Duration : 57 min 42 s
Overall bit rate : 1 696 kb/s
Writing application : VirtualDubMod 1.5.10.2 (build 2540/release)
Writing library : VirtualDubMod build 2540/release

Video
ID : 0
Format : MPEG-4 Visual
Format profile : Advanced Simple@L5
Format settings : BVOP2
Format settings, BVOP : 2
Format settings, QPel : No
Format settings, GMC : No warppoints
Format settings, Matrix : Default (MPEG)
Codec ID : XVID
Codec ID/Hint : XviD
Duration : 57 min 42 s
Bit rate : 1 362 kb/s
Width : 720 pixels
Height : 400 pixels
Display aspect ratio : 16:9
Frame rate : 23.976 (24000/1001) FPS
Color space : YUV
Chroma subsampling : 4:2:0
Bit depth : 8 bits
Scan type : Progressive
Compression mode : Lossy
Bits/(Pixel*Frame) : 0.197
Stream size : 562 MiB (80%)
Writing library : XviD 64

Audio #1
ID : 1
Format : MPEG Audio
Format version : Version 1
Format profile : Layer 3
Format settings : Joint stereo / MS Stereo
Mode : Joint stereo
Mode extension : MS Stereo
Codec ID : 55
Codec ID/Hint : MP3
Duration : 57 min 42 s
Bit rate mode : Constant
Bit rate : 128 kb/s
Channel(s) : 2 channels
Sampling rate : 48.0 kHz
Compression mode : Lossy
Stream size : 52.8 MiB (8%)
Alignment : Aligned on interleaves

Audio #2
ID : 2
Format : MPEG Audio
Format version : Version 1
Format profile : Layer 3
Format settings : Joint stereo
Mode : Joint stereo
Codec ID : 55
Codec ID/Hint : MP3
Duration : 57 min 42 s
Bit rate mode : Constant
Bit rate : 128 kb/s
Channel(s) : 2 channels
Sampling rate : 48.0 kHz
Compression mode : Lossy
Stream size : 52.8 MiB (8%)
Alignment : Aligned on interleaves
Writing library : LAME3.99r
Encoding settings : -m j -V 4 -q 2 -lowpass 17 -b 128
скриншот  скриншот  скриншот  
pb.wtf



Скачать Тиран через торрент http://i79.fastpic.ru/big/2016/0717/08/20e3ea44286f57b5c4a697e8cd10e108.jpg Скачать фильм Тиран через торрент бесплантно в хорошем качестве Описание:Сюжет Тирана разворачивается в самой политически неустойчивой и взрывоопасной точке нашего мира — на Ближнем Востоке, где, как ... 10 10 1
Торрент: Зарегистрирован [2018-12-29 14:38] · скачан: 15 раз
Статус: √ проверено
Размер: 18.51 GB
Как cкачать? Как скачать Тиран через торрент | qTorrent

28-11-2019 20:33  

Отключить всю рекламу на сайте

    Дорогой пользователь! Огромная просьба, поблагодарите релизера, оцените раздачу и оставьте свои комментарий, если Вы скачали Тиран через торрент бесплатно! Внесите свою лепту в развитие PiratBit!
    Комментировать посты могут только пользователи прошедшие не сложную регистрацию
    Показать сообщения:    

    Тиран через торрент
    Скачать бесплатно Тиран
    Тиран скачать торрент
    Тиран смотреть онлайн
    Cкачать фильм Тиран бесплатно
    Тиран скачать торрент в хорошем качестве
    Тиран смотреть онлайн бесплатно в хорошем качестве


    Вы не можете начинать темы
    Вы не можете отвечать на сообщения
    Вы не можете редактировать свои сообщения
    Вы не можете удалять свои сообщения
    Вы не можете голосовать в опросах
    Вы не можете прикреплять файлы к сообщениям
    Вы можете скачивать файлы