2 сезон

iTunes

MVO

1

2 сезон

iTunes

iTunes

1 сезон

RePack

30

Ultimate

ВАЖНО

ИГРА 18+

pack

RePack

MK11
pack

Легкие деньги

RePack

jed

RePack

fifa19

RePack

RDR2

RePack

NEED FOR SPEED™ PAYBACK

4 сезон

9 сезон

Бесстыжие 9 сезон

Все сериалы

все сериалы на PB.wtf

RePack

FAR CRY 5

Anonymous, доброй ночи, мы не успеваем собрать деньги на оплату серверов за декабрь и январь, помогите нам пожалуйста в это трудное время. В качестве благодарности мы отключим Вам всю рекламу на сайте (укажите свой ник в строку Ваше имя)!

×
  
Magnet ссылка

Измеряя мир в 3Д / Measuring the World 3D (Детлев Бук / Detlev Buck) [2012, приключения, биография, драма, BDRip, 1080p] OverUnder / Вертикальная стереопара pb.wtf

Измеряя мир в 3Д через торрент pb.wtf

Размер: 18.83 GB | Добавлен: 2 года назад | Торрент скачан:12 раз
Скачать  

29-12-2018 14:47 Измеряя мир в 3Д Скачать торрент  

Измеряя мир / Measuring the World / Die Vermessung der Welt

Год выпуска: 2012
Страна: Германия
Жанр: приключения, биография, драма
Продолжительность: 02:02:55

Перевод: Профессиональный дублированный(лицензия)
Русские субтитры: нет
Режиссер: Детлев Бук / Detlev Buck

В ролях: Флориан Давид Фитц, Альбрехт Шух, Балданпурев Самбуу, Аги Ариунсэйчан Даваачу, Жереми Капон, Вики Крипс, Карл Маркович, Леннарт Хансель, Ядеа, Паскаль Фиедлер

Описание: Аристократу Александру фон Гумбольдту было с рождения предначертано наслаждаться жизнью в родовом замке, выезжать на светские рауты и охоту, а по выходным посещать церковь. Но он с детства мечтал о путешествиях.Сыну бедняков Карлу Гауссу было с рождения предначертано повторить нелёгкую судьбу родителей. Но школьный учитель распознал его гений и выхлопотал стипендию для учебы в гимназии. Александр Фон Гумбольдт путешествовал всю свою жизнь, постигая мир через собственный опыт и наблюдения — и мир приобрел учёного-энциклопедиста и основателя множества областей науки. Карл Гаусс всю жизнь прожил в Брауншвайге и Гёттингене, что не помешало ему изобрести теорию чисел и стать одним из величайших математиков всех времен. В 1828 году два исследователя и покорителя мира встретятся на Первом Всемирном конгрессе в Берлине… Экранизация по произведению: Дэниэл Кельманн.

Сэмпл: http://sendfile.su/1464671

Качество: BDrip, 1080p
Контейнер: MKV
Формат 3D: OverUnder / Вертикальная стереопара
Порядок ракурсов: левый ракурс первый
Видео кодек: x264
Аудио кодек: AC3
Видео: AVC / High@L5.0 / 23,976 fps / 1920х2160 / 20,2 Мбит/сек
Аудио: Русский / AC3 / 48 KHz / 5.1 ch / 448 Кбит/сек(лицензия)
Аудио 2: Немецкий / AC3 / 48 KHz / 5.1 ch / 640 Кбит/сек

ВНИМАНИЕ ! На встроенных ТВ-плеерах работать не будет!!!

ТВ Samsung в названии которого есть надпись Ultra HD , и LG Ultra HD 800 серии, LG C6P, Xiaomi Mi TV 2 воспроизводят полные стереопары встроенными плеерами
Железные плееры на которых воспроизводятся полные стереопары:Popcorn C-200 , Dune HD Smart D1 , Dune HD DUO , Dune HD Smart H1 , Dune HD Smart B1 , Dune HD Max , Dune HD TV-303D, Dune HD TV-102, Dune HD Base 3D, Philips HMP7001, Aura HD, MECOOL BB2
Чтобы изображение было на весь экран в плеере выставляем, если рип 1920х1600 - то выставляем 2.35:1 , если 1920х2160 - то выставляем 16:9
Общее
Уникальный идентификатор : 217486865248857815380199836709238544242 (0xA39E72564D63FED48DF23298D40F1772)
Полное имя : G:\видео\Measuring the World.Rip by SeRoGa00.mkv
Формат : Matroska
Версия формата : Version 2
Размер файла : 18,8 Гбайт
Продолжительность : 2 ч. 3 м.
Общий поток : 21,8 Мбит/сек
Дата кодирования : UTC 2018-12-29 07:34:01
Программа кодирования : mkvmerge v3.4.0 ('Rapunzel') сборка от May 15 2010 09:38:20
Библиотека кодирования : libebml v0.8.0 + libmatroska v0.9.0

Видео
Идентификатор : 1
Формат : AVC
Формат/Информация : Advanced Video Codec
Профиль формата : High@L5.0
Параметр CABAC формата : Да
Параметр ReFrames формата : 4 кадра
Идентификатор кодека : V_MPEG4/ISO/AVC
Продолжительность : 2 ч. 3 м.
Битрейт : 20,2 Мбит/сек
Ширина : 1920 пикселей
Высота : 2160 пикселей
Соотношение сторон : 0,889
Частота кадров : 23,976 кадра/сек
Цветовое пространство : YUV
Субдискретизация насыщенности : 4:2:0
Битовая глубина : 8 бит
Тип развёртки : Прогрессивная
Бит/(Пиксели*Кадры) : 0.204
Размер потока : 17,5 Гбайт (93%)
Заголовок : Rip by SeRoGa00
Библиотека кодирования : x264 core 155 r2901 7d0ff22
Настройки программы : cabac=1 / ref=4 / deblock=1:-3:-3 / analyse=0x3:0x113 / me=umh / subme=10 / psy=1 / psy_rd=1.00:0.15 / mixed_ref=1 / me_range=24 / chroma_me=1 / trellis=2 / 8x8dct=1 / cqm=0 / deadzone=21,11 / fast_pskip=1 / chroma_qp_offset=-3 / threads=18 / lookahead_threads=6 / sliced_threads=0 / nr=0 / decimate=0 / interlaced=0 / bluray_compat=0 / constrained_intra=0 / bframes=10 / b_pyramid=2 / b_adapt=2 / b_bias=0 / direct=3 / weightb=1 / open_gop=0 / weightp=2 / keyint=250 / keyint_min=23 / scenecut=40 / intra_refresh=0 / rc_lookahead=60 / rc=crf / mbtree=1 / crf=16.5 / qcomp=0.60 / qpmin=10 / qpmax=69 / qpstep=4 / vbv_maxrate=40000 / vbv_bufsize=40000 / crf_max=0.0 / nal_hrd=none / filler=0 / ip_ratio=1.40 / aq=1:1.00
Язык : English
Default : Нет
Forced : Нет

Аудио #1
Идентификатор : 2
Формат : AC-3
Формат/Информация : Audio Coding 3
Расширение режима : CM (complete main)
Параметр Endianness формата : Big
Идентификатор кодека : A_AC3
Продолжительность : 2 ч. 3 м.
Вид битрейта : Постоянный
Битрейт : 448 Кбит/сек
Каналы : 6 каналов
Расположение каналов : Front: L C R, Side: L R, LFE
Частота : 48,0 КГц
Битовая глубина : 16 бит
Метод сжатия : С потерями
Размер потока : 397 Мбайт (2%)
Язык : Russian
Default : Да
Forced : Нет

Аудио #2
Идентификатор : 3
Формат : AC-3
Формат/Информация : Audio Coding 3
Расширение режима : CM (complete main)
Параметр Endianness формата : Big
Идентификатор кодека : A_AC3
Продолжительность : 2 ч. 3 м.
Вид битрейта : Постоянный
Битрейт : 640 Кбит/сек
Каналы : 6 каналов
Расположение каналов : Front: L C R, Side: L R, LFE
Частота : 48,0 КГц
Битовая глубина : 16 бит
Метод сжатия : С потерями
Размер потока : 567 Мбайт (3%)
Язык : English
Default : Нет
Forced : Нет

Меню
00:00:00.000 : en:00:00:00.000
00:12:05.475 : en:00:12:05.475
00:20:29.812 : en:00:20:29.812
00:31:42.275 : en:00:31:42.275
00:42:16.325 : en:00:42:16.325
00:52:51.794 : en:00:52:51.794
01:01:46.620 : en:01:01:46.620
01:12:15.540 : en:01:12:15.540
01:24:07.042 : en:01:24:07.042
01:35:39.025 : en:01:35:39.025
01:44:35.519 : en:01:44:35.519
01:54:44.544 : en:01:54:44.544
скриншот  

скриншот  

скриншот  

скриншот  

скриншот  

скриншот  
pb.wtf



Скачать Измеряя мир в 3Д через торрент https://d.radikal.ru/d36/1812/db/9e6edbfe0330.png Скачать фильм Измеряя мир в 3Д через торрент бесплантно в хорошем качестве Описание: Аристократу Александру фон Гумбольдту было с рождения предначертано наслаждаться жизнью в родовом замке, выезжать на светские ... 5 10 1
Торрент: Зарегистрирован [2018-12-29 14:47] · скачан: 12 раз
Статус: √ проверено
Размер: 18.83 GB
Как cкачать? Как скачать Измеряя мир в 3Д через торрент | UTorrent

28-11-2019 20:33  

Отключить всю рекламу на сайте

    Дорогой пользователь! Огромная просьба, поблагодарите релизера, оцените раздачу и оставьте свои комментарий, если Вы скачали Измеряя мир в 3Д через торрент бесплатно! Внесите свою лепту в развитие PiratBit!
    Комментировать посты могут только пользователи прошедшие не сложную регистрацию
    Показать сообщения:    

    Измеряя мир в 3Д через торрент
    Скачать бесплатно Измеряя мир в 3Д
    Измеряя мир в 3Д скачать торрент
    Измеряя мир в 3Д смотреть онлайн
    Cкачать фильм Измеряя мир в 3Д бесплатно
    Измеряя мир в 3Д скачать торрент в хорошем качестве
    Измеряя мир в 3Д смотреть онлайн бесплатно в хорошем качестве


    Вы не можете начинать темы
    Вы не можете отвечать на сообщения
    Вы не можете редактировать свои сообщения
    Вы не можете удалять свои сообщения
    Вы не можете голосовать в опросах
    Вы не можете прикреплять файлы к сообщениям
    Вы можете скачивать файлы