Мега распродажа FORZA HORIZON 4 ULTIMATE+ВСЕ DLC+ОНЛАЙН всего за 499р. 349 руб. (супер цена). Внимание количество ограничено!!!

iTunes

1+1

iTunes

мы

iTunes

1

1 сезон

Чернобыль

1 сезон

Ральф против интернета

Лицензия

ПШазам

8 сезон

Игра престолов

Лицензия

30
pack

ВАЖНО

!!Акция!!

Alien_RageХит недели

RePack

Resident Evil 21

ИГРА 18+

pack

RePack

Metro:Exodus

!!Акция!!

Alien_Rage

RePack

fifa19

RePack

Assassins Creed: Odyssey

RePack

NEED FOR SPEED™ PAYBACK

3 сезон

9 сезон

Бесстыжие 9 сезон

Все сериалы

все сериалы на PB.wtf

RePack

FAR CRY 5
Ребята, катастрофически не хватает 2730р. для оплаты серверов за ИЮНЬ (всвязи с блокировками трафик упал в 3 раза), 1-2р., выручайте.
  

Собака, остановившая войну / La Guerre des Tuques / The Dog Who Stopped The War (Андрэ Меланкон) [1984, приключения, комедия, драма, семейный, VHSRip > DVD] [Советская прокатная копия] [Dub] pb.wtf

Собака, остановившая войну через торрент pb.wtf

Размер: 3.97 GB | Добавлен: 6 мес. назад | Торрент скачан:4 раза
Скачать  

29-12-2018 15:29 Собака, остановившая войну Скачать торрент  

Собака, остановившая войну / La Guerre des Tuques [Советская прокатная копия] Год выпуска: 1984
Страна: Канада
Жанр: приключения, комедия, драма, семейный
Продолжительность: 01:22:24
Перевод: Профессиональный (дублированный)
Субтитры: нет

Режиссер: Андрэ Меланкон / André Mélançon

В ролях: Седрик Журд, Мари-Пьер А. Дъамур, Жюльен Эли, Мин Ву Дюк, Мариз Картрайт, Люк Бучер, Натали Ганьон, Оливье Монетт, Марио Монетт, Гилберт Монетт...
Описание: Во время рождественских праздников, дети из одной деревни делятся на две группы чтобы поиграть в войнушку снежками. Но эта полу-война сделала более сложным взаимные отношения между Люком — шефом одной из сторон, и Софи — лидером защитников снежной крепости.

| Релиз:
Семпл: http://sendfile.su/1463841

Тип релиза: VHSRip
Контейнер: DVD-Video
Видео: PAL 720x576 (4:3) @ 768x576, 25.000 fps, MPEG-2 Video, ~6622 Kbps, 0.639 bits/pixel
Аудио: Русский, 48.0 KHz, AC3, 2 ch, 256 Kbps
Title: Собака, остановившая войну 1984 Dub Горького
Size: 3.97 Gb ( 4 164 874,00 KBytes ) - DVD-5
Enabled regions: 1, 2, 3, 4, 5, 6, 7, 8

VTS_01 :
Play Length: 01:22:24
Video: PAL 4:3 (720x576) VBR
Audio:
Russian, AC3, 2/0 (L,R) ch, 256 kbps, Delay 0 mSec
General
Complete name : \Собака, остановившая войну 1984 Dub Горького\VIDEO_TS\VTS_01_1.VOB
Format : MPEG-PS
File size : 1 024 MiB
Duration : 20 min 24 s
Overall bit rate mode : Variable
Overall bit rate : 7 018 kb/s

Video
ID : 224 (0xE0)
Format : MPEG Video
Format version : Version 2
Format profile : Main@Main
Format settings : BVOP
Format settings, BVOP : Yes
Format settings, Matrix : Default
Format settings, GOP : Variable
Format settings, picture structure : Frame
Duration : 20 min 24 s
Bit rate mode : Variable
Bit rate : 6 622 kb/s
Maximum bit rate : 9 400 kb/s
Width : 720 pixels
Height : 576 pixels
Display aspect ratio : 4:3
Frame rate : 25.000 FPS
Standard : PAL
Color space : YUV
Chroma subsampling : 4:2:0
Bit depth : 8 bits
Scan type : Interlaced
Scan order : Top Field First
Compression mode : Lossy
Bits/(Pixel*Frame) : 0.639
Time code of first frame : 00:00:00:00
Time code source : Group of pictures header
GOP, Open/Closed : Open
GOP, Open/Closed of first frame : Closed
Stream size : 966 MiB (94%)
Color primaries : BT.601 PAL
Transfer characteristics : BT.470 System B/G
Matrix coefficients : BT.470 System B/G

Audio
ID : 189 (0xBD)-128 (0x80)
Format : AC-3
Format/Info : Audio Coding 3
Commercial name : Dolby Digital
Muxing mode : DVD-Video
Duration : 20 min 23 s
Bit rate mode : Constant
Bit rate : 256 kb/s
Channel(s) : 2 channels
Channel layout : L R
Sampling rate : 48.0 kHz
Frame rate : 31.250 FPS (1536 SPF)
Bit depth : 16 bits
Compression mode : Lossy
Stream size : 37.3 MiB (4%)
Service kind : Complete Main

Menu
скриншот  скриншот  скриншот  скриншот  
скриншот  
pb.wtf



Скачать Собака, остановившая войну через торрент https://i4.imageban.ru/out/2018/12/24/39d210c1ca8c32a93b9ba975e83483c7.jpg Скачать фильм Собака, остановившая войну через торрент бесплантно в хорошем качестве Описание: Во время рождественских праздников, дети из одной деревни делятся на две группы чтобы поиграть в войнушку снежками. Но эта ... 5 10 1
Торрент: Зарегистрирован [2018-12-29 15:29] · скачан: 4 раз
Статус: √ проверено
Размер: 3.97 GB
Как cкачать? Как скачать Собака, остановившая войну через торрент | qTorrent


>> Регистрируемся здесь <<






Отзывы и комментарии о схеме читаем и пишем здесь: ---> Отзывы и комментарии о схеме

Новые благодарочки в телеграм довольных пользователей:
скриншот   скриншот   скриншот   скриншот   скриншот
    Дорогой пользователь! Огромная просьба, поблагодарите релизера, оцените раздачу и оставьте свои комментарий, если Вы скачали Собака, остановившая войну через торрент бесплатно! Внесите свою лепту в развитие PiratBit!
    Комментировать посты могут только пользователи прошедшие не сложную регистрацию
    Показать сообщения:    

    Собака, остановившая войну через торрент
    Скачать бесплатно Собака, остановившая войну
    Собака, остановившая войну скачать торрент
    Собака, остановившая войну смотреть онлайн
    Cкачать фильм Собака, остановившая войну бесплатно
    Собака, остановившая войну скачать торрент в хорошем качестве
    Собака, остановившая войну смотреть онлайн бесплатно в хорошем качестве


    Вы не можете начинать темы
    Вы не можете отвечать на сообщения
    Вы не можете редактировать свои сообщения
    Вы не можете удалять свои сообщения
    Вы не можете голосовать в опросах
    Вы не можете прикреплять файлы к сообщениям
    Вы можете скачивать файлы