Ссылка на приватное зеркало нашего сайта всего за 1$. Внимание количество ограничено!!!

2 сезон

iTunes

1 сезон

1

2 сезон

2 сезон

iTunes

1 сезон

RePack

30

Ultimate

ВАЖНО

ИГРА 18+

pack

RePack

MK11
pack

Забери бонус

RePack

jed

!!Акция!!

Alien_Rage

RePack

fifa19

RePack

Assassins Creed: Odyssey

RePack

NEED FOR SPEED™ PAYBACK

4 сезон

9 сезон

Бесстыжие 9 сезон

Все сериалы

все сериалы на PB.wtf

RePack

FAR CRY 5
  

Удивительная миссис Мейзел / The Marvelous Mrs. Maisel / Сезон: 2 / Серии: 1-10 из 10 (Дэниэл Палладино, Скотт Эллис) [2018, драма, комедия, WEB-DLRip] [MVO] (Jaskier) pb.wtf

Удивительная миссис Мейзел через торрент pb.wtf

Раздают: 1 [ 0 KB/s ]
Размер: 6.09 GB | Добавлен: 1 год 10 мес. назад | Торрент скачан:43 раза
Скачать  

29-12-2018 16:10 Удивительная миссис Мейзел Скачать торрент  

Удивительная миссис Мейзел / The Marvelous Mrs. Maisel

Год выпуска: 2018
Страна: США
Жанр: драма, комедия,
Продолжительность: ~ 00:55:00
Перевод: Профессиональный (многоголосый закадровый) | Jaskier

Режиссёр: Эми Шерман-Палладино, Дэниэл Палладино, Скотт Эллис

В ролях: Рэйчел Броснахэн, Алекс Борштейн, Марин Хинкль, Тони Шэлоуб, Майкл Зеген, Бейли Де Янг, Матильда Дауни, Matteo Pascale, Брайан Тарантина, Нунзио Паскаль

Описание: Отправляемся с вами в пятьдесят восьмой год прошлого века. Главная героиня живет, не зная проблем и сложностей. У нее есть все, чтобы быть по-настоящему счастливой. Отношения с мужем идут в гору, а двое детей радуют каждый день. К тому же живет семейка в весьма хорошем райончике, который всегда привлекает своим уютом и красотой. Главные герои сериала ютятся в квартире где-то на Верхнем Вест-Сайде. Приятности на этом не заканчиваются. Мириам Мэйзел открывает в себе невероятную способность. Как оказалось, девушка великолепно читает стенд-ап. Она способна вызвать даже самой простой историей смех близких людей. Жизнь главной героини меняется полностью, когда та начинает делать успехи в этом направлении творчества!

скриншот  

Качество: WEB-DLRip
Формат: AVI
Видео: XviD, ~ 1400 kbps, 720x400, 23.976 fps
Аудио 1: MP3, 48,0 КГц, 2 ch, 128 kbps - RUS
Аудио 2: MP3, 48,0 КГц, 2 ch, 128 kbps - ENG
Субтитры: отсутствуют
Общее
Полное имя : V:\arhiv\The Marvelous Mrs. Maisel. Season 2 (WEB-DL l 400p l Jaskier)\The.Marvelous.Mrs.Maisel.S02E01.400p.Jaskier.avi
Формат : AVI
Формат/Информация : Audio Video Interleave
Размер файла : 651 Мбайт
Продолжительность : 54 м.
Общий поток : 1670 Кбит/сек
Программа кодирования : VirtualDubMod 1.5.10.3 | www.virtualdub-fr.org || (build 2550/release)
Библиотека кодирования : VirtualDubMod build 2550/release

Видео
Идентификатор : 0
Формат : MPEG-4 Visual
Профиль формата : Advanced Simple@L5
Параметр BVOP формата : 2
Параметр QPel формата : Нет
Параметр GMC формата : Без точки перехода
Параметр матрицы формата : Выборочная
Идентификатор кодека : XVID
Идентификатор кодека/Подсказка : XviD
Продолжительность : 54 м.
Битрейт : 1400 Кбит/сек
Ширина : 720 пикселей
Высота : 400 пикселей
Соотношение сторон : 16:9
Частота кадров : 23,976 (23976/1000) кадра/сек
Цветовое пространство : YUV
Субдискретизация насыщенности : 4:2:0
Битовая глубина : 8 бит
Тип развёртки : Прогрессивная
Метод сжатия : С потерями
Бит/(Пиксели*Кадры) : 0.203
Размер потока : 546 Мбайт (84%)
Библиотека кодирования : XviD 73

Аудио #1
Идентификатор : 1
Формат : MPEG Audio
Версия формата : Version 1
Профиль формата : Layer 3
Режим : Joint stereo
Расширение режима : MS Stereo
Идентификатор кодека : 55
Идентификатор кодека/Подсказка : MP3
Продолжительность : 54 м.
Вид битрейта : Постоянный
Битрейт : 128 Кбит/сек
Каналы : 2 канала
Частота : 48,0 КГц
Метод сжатия : С потерями
Размер потока : 49,9 Мбайт (8%)
Выравнивание : Соединение по промежуткам
Продолжительность промежутка : 42 мс. (1,00 видеокадр)
Время предзагрузки промежутка : 504 мс.

Аудио #2
Идентификатор : 2
Формат : MPEG Audio
Версия формата : Version 1
Профиль формата : Layer 3
Режим : Joint stereo
Расширение режима : MS Stereo
Идентификатор кодека : 55
Идентификатор кодека/Подсказка : MP3
Продолжительность : 54 м.
Вид битрейта : Постоянный
Битрейт : 128 Кбит/сек
Каналы : 2 канала
Частота : 48,0 КГц
Метод сжатия : С потерями
Размер потока : 49,9 Мбайт (8%)
Выравнивание : Соединение по промежуткам
Продолжительность промежутка : 42 мс. (1,00 видеокадр)
Время предзагрузки промежутка : 504 мс.
скриншот  скриншот  скриншот  
pb.wtf



Скачать Удивительная миссис Мейзел через торрент http://i104.fastpic.ru/big/2018/0619/e3/678bcea5b0a4916fa8e5e7f9c96f12e3.png Скачать фильм Удивительная миссис Мейзел через торрент бесплантно в хорошем качестве Описание: Отправляемся с вами в пятьдесят восьмой год прошлого века. Главная героиня живет, не зная проблем и сложностей. У нее есть все, ... 6.5 10 2
Торрент: Зарегистрирован [2018-12-29 16:10] · скачан: 43 раз
Статус: √ проверено
Размер: 6.09 GB
Как cкачать? Как скачать Удивительная миссис Мейзел через торрент | qTorrent

% Раздел Тема Автор DL S | L
Зарубежные сериалы [ 22.73 GB ] Удивительная миссис Мейзел / The Marvelous Mrs. Maisel / Сезон: 2 / Серии: 1-10 из 10 [2018 WEBRip 1080p] [MVO] killermax2013 Скачать
1 | 0
Зарубежные сериалы [ 20.77 GB ] Удивительная миссис Мейзел / The Marvelous Mrs. Maisel / Сезон: 2 / Серии: 1-10 из 10 [2018 WEB-DL 1080p] [MVO] killermax2013 Скачать
1 | 0
Зарубежные сериалы [ 9.23 GB ] Удивительная миссис Мейзел / The Marvelous Mrs. Maisel / Сезон: 2 / Серии: 1-10 из 10 [2018 WEB-DL 720p] [MVO] killermax2013 Скачать
1 | 0

28-11-2019 20:33  

Отключить всю рекламу на сайте

    Дорогой пользователь! Огромная просьба, поблагодарите релизера, оцените раздачу и оставьте свои комментарий, если Вы скачали Удивительная миссис Мейзел через торрент бесплатно! Внесите свою лепту в развитие PiratBit!
    Комментировать посты могут только пользователи прошедшие не сложную регистрацию
    Показать сообщения:    

    Удивительная миссис Мейзел через торрент
    Скачать бесплатно Удивительная миссис Мейзел
    Удивительная миссис Мейзел скачать торрент
    Удивительная миссис Мейзел смотреть онлайн
    Cкачать фильм Удивительная миссис Мейзел бесплатно
    Удивительная миссис Мейзел скачать торрент в хорошем качестве
    Удивительная миссис Мейзел смотреть онлайн бесплатно в хорошем качестве


    Вы не можете начинать темы
    Вы не можете отвечать на сообщения
    Вы не можете редактировать свои сообщения
    Вы не можете удалять свои сообщения
    Вы не можете голосовать в опросах
    Вы не можете прикреплять файлы к сообщениям
    Вы можете скачивать файлы