2 сезон

iTunes

1 сезон

1

iTunes

iTunes

iTunes

1 сезон

RePack

30

ИГРА 18+

pack

ВАЖНО

!!Акция!!

Alien_RageХит недели

RePack

MK11
pack

Забери бонус

RePack

jed

!!Акция!!

Alien_Rage

RePack

fifa19

RePack

Assassins Creed: Odyssey

RePack

NEED FOR SPEED™ PAYBACK

4 сезон

9 сезон

Бесстыжие 9 сезон

Все сериалы

все сериалы на PB.wtf

RePack

FAR CRY 5
  

Моя звезда / Серии: 1-4 из 4 (Валерия Ивановская) [2018, Мелодрама, SATRip] pb.wtf

Моя звезда через торрент pb.wtf

Размер: 2.39 GB | Добавлен: 1 год 10 мес. назад | Торрент скачан:87 раз
Скачать  

29-12-2018 21:10 Моя звезда Скачать торрент  

Моя звездаГод выпуска: 2018
Страна: Россия
Жанр: Мелодрама
Продолжительность: ~ 00:45:00 серия
Субтитры: отсутствуют

Режиссер: Валерия Ивановская

В ролях:

Мария Куликова, Андрей Чернышов, Илья Ермолов, Дарья Коныжева, Екатерина Волкова, Прохор Дубравин, Галина Сазонова

Описание:

Костя и Маша дружили со студенческих лет. И Костя был единственным, кто не замечал, что все эти годы Маша влюблена в него… Мечта девушки о взаимности гасла день за днём. И, наконец, она решила ничего больше не ждать и ответила на чувства своего давнего поклонника Кирилла. Счастливый Кирилл сделал ей предложение, вот только свадьба так и не состоялась – жених умер от сердечного приступа. И теперь Маше надо понять, что делать с тремя его детьми от первого брака. На Костю тоже сваливается беда: его названая мать тяжело больна и просит его позаботиться о своей воспитаннице Кристине. Костя забирает девушку с собой в Москву, ещё не представляя, во что ввязался. У Кристины две мечты – стать звездой кинематографа и выйти замуж за олигарха. В итоге всё выйдет совсем не так, как представлялось героям. Хотя, возможно, гораздо лучше.

Качество: SATRip
Формат: AVI

Видео: XviD, ~ 1650 Кбит/с, 720x400
Аудио: MP3, 2 ch, 192 Кбит/с
скриншот  скриншот  скриншот  скриншот  

Общее
Полное имя : D:\Moya.zvezda.2018.XviD.SATRip.25Kuzmich\Moya.zvezda.(01.seriya.iz.04).XviD.SATRip.25Kuzmich.avi
Формат : AVI
Формат/Информация : Audio Video Interleave
Размер файла : 591 Мбайт
Продолжительность : 44 м. 36 с.
Общий поток : 1852 Кбит/сек
Программа кодирования : VirtualDubMod 1.5.10.3 | www.virtualdub-fr.org || (build 2550/release)
Библиотека кодирования : VirtualDubMod build 2550/release

Видео
Идентификатор : 0
Формат : MPEG-4 Visual
Профиль формата : Advanced Simple@L5
Параметр BVOP формата : 2
Параметр QPel формата : Нет
Параметр GMC формата : Без точки перехода
Параметр матрицы формата : Default (MPEG)
Режим смешивания : Сжатый битовый поток
Идентификатор кодека : XVID
Идентификатор кодека/Подсказка : XviD
Продолжительность : 44 м. 36 с.
Битрейт : 1650 Кбит/сек
Ширина : 720 пикселей
Высота : 400 пикселей
Соотношение сторон : 16:9
Частота кадров : 25,000 кадров/сек
Цветовое пространство : YUV
Субдискретизация насыщенности : 4:2:0
Битовая глубина : 8 бит
Тип развёртки : Прогрессивная
Метод сжатия : С потерями
Бит/(Пиксели*Кадры) : 0.229
Размер потока : 526 Мбайт (89%)
Библиотека кодирования : XviD 1.2.1 (UTC 2008-12-04)

Аудио
Идентификатор : 1
Формат : MPEG Audio
Версия формата : Version 1
Профиль формата : Layer 3
Режим : Joint stereo
Расширение режима : MS Stereo
Идентификатор кодека : 55
Идентификатор кодека/Подсказка : MP3
Продолжительность : 44 м. 36 с.
Вид битрейта : Постоянный
Битрейт : 192 Кбит/сек
Каналы : 2 канала
Частота : 48,0 КГц
Метод сжатия : С потерями
Размер потока : 61,2 Мбайт (10%)
Выравнивание : Соединение по промежуткам
Продолжительность промежутка : 40 мс. (1,00 видеокадр)
Время предзагрузки промежутка : 504 мс.
Библиотека кодирования : LAME3.99r
Настройки программы : -m j -V 4 -

pb.wtf



Скачать Моя звезда через торрент http://pic1.kartinco.top/images/12/bkuf8.jpg Скачать фильм Моя звезда через торрент бесплантно в хорошем качестве Описание: Костя и Маша дружили со студенческих лет. И Костя был единственным, кто не замечал, что все эти годы Маша влюблена в него… Мечта ... 10 10 3
Торрент: Зарегистрирован [2018-12-29 21:10] · скачан: 87 раз
Статус: √ проверено
Размер: 2.39 GB
Как cкачать? Как скачать Моя звезда через торрент | qTorrent

% Раздел Тема Автор DL S | L
Наши сериалы [ 2.45 GB ] Моя звезда / Серии: 1-4 из 4 [2018 SATRip-AVC] aleksan55 Скачать
1 | 0

28-11-2019 20:33  

Отключить всю рекламу на сайте

    Дорогой пользователь! Огромная просьба, поблагодарите релизера, оцените раздачу и оставьте свои комментарий, если Вы скачали Моя звезда через торрент бесплатно! Внесите свою лепту в развитие PiratBit!
    Комментировать посты могут только пользователи прошедшие не сложную регистрацию
    Показать сообщения:    

    Моя звезда через торрент
    Скачать бесплатно Моя звезда
    Моя звезда скачать торрент
    Моя звезда смотреть онлайн
    Cкачать фильм Моя звезда бесплатно
    Моя звезда скачать торрент в хорошем качестве
    Моя звезда смотреть онлайн бесплатно в хорошем качестве


    Вы не можете начинать темы
    Вы не можете отвечать на сообщения
    Вы не можете редактировать свои сообщения
    Вы не можете удалять свои сообщения
    Вы не можете голосовать в опросах
    Вы не можете прикреплять файлы к сообщениям
    Вы можете скачивать файлы