Лицензия

MVO

1

1 сезон

Лицензия

Лицензия

13

MVO

1 сезон

Ultimate

pack

Рекомендуем

30

Repack

ВАЖНО

ВАЖНО

Ghostwire

RePack

jed

RePack

fifa19

RePack

RDR2

RePack

NEED FOR SPEED™ PAYBACK

RePack

Кинопоиск HD

 Острые козырьки 6 сезон

6 сезон

FAR CRY 6

RePack

Лицензия

MVO

1

1 сезон

1 сезон

Лицензия

  

Невинные / The Innocents / Сезон: 1 / Серии: 1-8 из 8 (Фэррен Блэкберн, Джеми Донахью) [2018, триллер, фантастика, криминал, WEB-DLRip] MVO [LostFilm]

Невинные через торрент pb.wtf

Размер: 5.46 GB | Добавлен: 3 года 9 мес. назад | Торрент скачан:38 раз
Смотреть онлайн Невинные | Скачать   

29-12-2018 22:30 Невинные Скачать торрент  

Невинные / The Innocents

Год выпуска: 2018
Страна: США
Жанр: триллер, фантастика, криминал,
Продолжительность: ~ 00:50:00
Перевод: Профессиональный (многоголосый закадровый) | LostFilm
Субтитры: Русские (NetFlix), английские

Режиссёр: Фэррен Блэкберн, Джеми Донахью

rating

В ролях:

Сорча Граундселл, Гай Пирс, Йоуханнес Хёйкьюр Йоуханнессон, Лаура Бирн, Сэм Хэзелдайн, Артур Хьюз, Надин Маршалл, Лизе Рисом Олсен, Ингунн Беате Ёйен

Описание:

Быть подростком непросто, а если ты ещё и оборотень, взросление превращается в натуральный кошмар. 16-летняя Джун сбегает со своим бойфрендом из-под надзора строгого отца. Однако девушка не зря находилась под присмотром: она ещё не очень хорошо контролирует свои способности. Может быть, ей поможет профессор Халворсон…

Качество: WEB-DLRip
Формат: AVI

Видео: 720x400 at 23.976 fps, XviD, ~1650 kbps avg
Аудио#1: Russian: 48 kHz, MP3, 2 ch, ~128 kbps avg |Многоголосый закадровый, LostFilm|
Аудио#2: English: 48 kHz, MP3, 2 ch, ~128 kbps avg
скриншот  скриншот  скриншот  скриншот  

Общее
Полное имя : D:\The Innocents (Season 1) WEBDLRip\The.Innocents.S01E01.WEB-DLRip.[Wentworth_Miller].avi
Формат : AVI
Формат/Информация : Audio Video Interleave
Размер файла : 656 Мбайт
Продолжительность : 45 м. 50 с.
Общий поток : 2001 Кбит/сек
Программа кодирования : VirtualDubMod 1.5.10.2 (build 2540/release)
Библиотека кодирования : VirtualDubMod build 2540/release

Видео
Идентификатор : 0
Формат : MPEG-4 Visual
Профиль формата : Advanced [email protected]
Параметр BVOP формата : 1
Параметр QPel формата : Нет
Параметр GMC формата : Без точки перехода
Параметр матрицы формата : Default (MPEG)
Идентификатор кодека : XVID
Идентификатор кодека/Подсказка : XviD
Продолжительность : 45 м. 50 с.
Битрейт : 1655 Кбит/сек
Ширина : 720 пикселей
Высота : 400 пикселей
Соотношение сторон : 16:9
Частота кадров : 24,000 кадра/сек
Цветовое пространство : YUV
Субдискретизация насыщенности : 4:2:0
Битовая глубина : 8 бит
Тип развёртки : Прогрессивная
Метод сжатия : С потерями
Бит/(Пиксели*Кадры) : 0.239
Размер потока : 543 Мбайт (83%)
Библиотека кодирования : XviD 61

Аудио #1
Идентификатор : 1
Формат : MPEG Audio
Версия формата : Version 1
Профиль формата : Layer 3
Идентификатор кодека : 55
Идентификатор кодека/Подсказка : MP3
Продолжительность : 45 м. 50 с.
Вид битрейта : Постоянный
Битрейт : 128 Кбит/сек
Каналы : 2 канала
Частота : 48,0 КГц
Метод сжатия : С потерями
Размер потока : 42,0 Мбайт (6%)
Выравнивание : Соединение по промежуткам
Библиотека кодирования : LAME3.98r
Настройки программы : -m s -V 4 -q 2 -lowpass 17 -b 128

Аудио #2
Идентификатор : 2
Формат : MPEG Audio
Версия формата : Version 1
Профиль формата : Layer 3
Режим : Joint stereo
Расширение режима : MS Stereo
Идентификатор кодека : 55
Идентификатор кодека/Подсказка : MP3
Продолжительность : 45 м. 50 с.
Вид битрейта : Постоянный
Битрейт : 128 Кбит/сек
Каналы : 2 канала
Частота : 48,0 КГц
Метод сжатия : С потерями
Размер потока : 42,0 Мбайт (6%)
Выравнивание : Соединение по промежуткам
Библиотека кодирования : LAME3.97




Скачать Невинные через торрент http://i6-imageban-ru.translate.goog/out/2018/08/25/451f8c871d5dfdd7b02a3577d448a9ef.jpg Скачать, смотреть онлайн Невинные бесплантно в хорошем качестве Описание: Быть подростком непросто, а если ты ещё и оборотень, взросление превращается в натуральный кошмар. 16-летняя Джун сбегает со ... 7.8 10 4
Торрент: Зарегистрирован [2018-12-29 22:30] · скачан: 38 раз
Статус: √ проверено
Размер: 5.46 GB
Как cкачать? Как скачать Невинные через торрент | UTorrent

% Раздел Тема Автор DL S | L
Зарубежные сериалы [ 52.61 GB ] Невинные / The Innocents / Сезон: 1 / Серии: 1-8 из 8 | LostFilm | 2160p bober100 Скачать
1 | 0
Зарубежные сериалы [ 5.45 GB ] Невинные / The Innocents / Сезон: 1 / Серии: 1-8 из 8 | Jaskier | 720p bober100 Скачать
1 | 0
Зарубежные сериалы [ 4.36 GB ] Невинные / The Innocents / Сезон: 1 / Серии: 1-8 из 8 | Jaskier | WEBRip bober100 Скачать
1 | 0
Зарубежные сериалы [ 4.67 GB ] Невинные / The Innocents / Сезон: 1 / Серии 1-8 из 8 | MVO | WEBRip GEKADOL Скачать
1 | 0
Зарубежные сериалы [ 7.63 GB ] Невинные / The Innocents / Сезон: 1 / Серии 1-8 из 8 | | 720p killermax2013 Скачать
1 | 0
Зарубежные сериалы [ 13.99 GB ] Невинные / The Innocents / Сезон: 1 / Серии 1-8 из 8 | LostFilm | 1080p killermax2013 Скачать
1 | 0

28-11-2019 20:33  

Отключить вcю реклaмy на сайте

    Дорогой пользователь! Огромная просьба, поблагодарите релизера, оцените раздачу и оставьте свои комментарий, если Вы скачали Невинные через торрент бесплатно!!
    Комментировать посты могут только пользователи прошедшие не сложную регистрацию
    Показать сообщения:    


    Невинные через торрент
    Скачать бесплатно Невинные
    Невинные скачать торрент
    Невинные смотреть онлайн
    Cкачать фильм Невинные бесплатно
    Невинные скачать торрент в хорошем качестве
    Невинные смотреть онлайн бесплатно в хорошем качестве
    Вы не можете начинать темы
    Вы не можете отвечать на сообщения
    Вы не можете редактировать свои сообщения
    Вы не можете удалять свои сообщения
    Вы не можете голосовать в опросах
    Вы не можете прикреплять файлы к сообщениям
    Вы можете скачивать файлы