Ссылка на приватное зеркало всего за 1$. Внимание количество ограничено!!!

iTunes

1+1

iTunes

мы

WEB-DL

1

iTunes

Чернобыль

iTunes

Ральф против интернета

Лицензия

ПШазам

Лицензия

Оно 2

Лицензия

30
pack

Вам бонус

ВАЖНО

!!Акция!!

Alien_RageХит недели

RePack

Resident Evil 21

ИГРА 18+

pack

RePack

jed

!!Акция!!

Alien_Rage

RePack

fifa19

RePack

Assassins Creed: Odyssey

RePack

NEED FOR SPEED™ PAYBACK

3 сезон

9 сезон

Бесстыжие 9 сезон

Все сериалы

все сериалы на PB.wtf

RePack

FAR CRY 5
Ребята, катастрофически не хватает 1900р. для оплаты серверов за Октябрь (всвязи с блокировками трафик упал в 3 раза), 1-2р., выручайте.
  

Вы умрете, или мы вернем вам деньги / Dead in a Week: Or Your Money Back (Том Эдмундс) [2018, боевик, комедия, BDRip] DUB [iTunes] pb.wtf

Вы умрете, или мы вернем вам деньги через торрент pb.wtf

Раздают: 2 [ 0 KB/s ]
Размер: 1.43 GB | Добавлен: 11 мес. назад | Торрент скачан:320 раз
Скачать  

30-12-2018 02:57 Вы умрете, или мы вернем вам деньги Скачать торрент  

Вы умрете, или мы вернем вам деньги / Dead in a Week: Or Your Money Back Год выпуска: 2018
Страна: Великобритания
Жанр: боевик, комедия
Продолжительность: 01:30:14
Перевод: Дублированный | iTunes
Субтитры: отсутствуют

Режиссер: Том Эдмундс

rating

В ролях:

Кристофер Экклстон, Анайрин Барнард, Том Уилкинсон, Фрейя Мавор, Гетин Энтони, Найджел Линдсэй, Мэрион Бэйли, Велибор Топич, Марсия Уоррен, Эмма Кэмпбелл-Джонс

Описание:

После очередной неудавшейся попытки свести счеты с жизнью незадачливый писатель Уильям обращается к услугам наемного убийцы Лесли - неумолимого ангела смерти из «Гильдии Убийц» - организации, готовой оказать помощь всякому, кто нуждается в быстром и безболезненном уходе из жизни. У Лесли доброе сердце, но нетвердая рука. Начальство мечтает отправить его на пенсию, а подвернувшийся контракт - единственный шанс отсрочить неизбежное. Однако в дело вмешивается случай. Уильяму вдруг улыбнулась судьба: он влюбляется...

Качество: BDRip
Формат: AVI

Видео: Xvid 73, 704x384, ~1875 kbps, 24,000 fps
Аудио: русский, AC3, 5.1 ch, 48 kHz, 384 kbps | iTunes
скриншот   скриншот   скриншот   скриншот   скриншот  

General
Полное имя : F:TorrentDeadinaWeekOrYourMoneyBackBDRip.avi
Формат : AVI
Формат/Информация : Audio Video Interleave
Профиль формата : OpenDML
Размер файла : 1.43 GiB
Продолжительность : 1 h 30 min
Общий поток : 2 271 kb/s
Программа кодирования : XviD4PSP 6.0 / 54.27.101

Video
Идентификатор : 0
Формат : MPEG-4 Visual
Профиль формата : Advanced Simple@L5
Настройки формата : BVOP2 / Custom Matrix
Параметр BVOP формата : 2
Параметр QPel формата : No
Параметр GMC формата : No warppoints
Параметр матрицы формата : Custom
Идентификатор кодека : XVID
Идентификатор кодека/Подсказка : XviD
Продолжительность : 1 h 30 min
Битрейт : 1 875 kb/s
Ширина : 704 pixels
Высота : 384 pixels
Соотношение сторон : 1.85:1
Частота кадров : 24.000 FPS
Цветовое пространство : YUV
Субдискретизация насыщенности : 4:2:0
Битовая глубина : 8 bits
Тип развёртки : Progressive
Метод сжатия : Lossy
Бит/(Пиксели*Кадры) : 0.289
Размер потока : 1.18 GiB (83%)
Библиотека кодирования : XviD 73

Audio
Идентификатор : 1
Формат : AC-3
Формат/Информация : Audio Coding 3
Идентификатор кодека : 2000
Продолжительность : 1 h 30 min
Вид битрейта : Constant
Битрейт : 384 kb/s
Каналы : 6 channels
Расположение каналов : Front: L C R, Side: L R, LFE
Частота : 48.0 kHz
Частота кадров : 31.250 FPS (1536 SPF)
Битовая глубина : 16 bits
Метод сжатия : Lossy
Размер потока : 248 MiB (17%)
Выравнивание : Aligned on interleaves
Продолжительность промежутка : 32 ms (0.77 video frame)

pb.wtf



Скачать Вы умрете, или мы вернем вам деньги через торрент http://pic1.kartinco.top/images/12/u5eyd.jpg Скачать фильм Вы умрете, или мы вернем вам деньги через торрент бесплантно в хорошем качестве Описание: После очередной неудавшейся попытки свести счеты с жизнью незадачливый писатель Уильям обращается к услугам наемного убийцы Лесли ... 9 10 4
Торрент: Зарегистрирован [2018-12-30 02:57] · скачан: 320 раз
Статус: √ проверено
Размер: 1.43 GB
Как cкачать? Как скачать Вы умрете, или мы вернем вам деньги через торрент | qTorrent

% Раздел Тема Автор DL S | L
Фильмы 2018 [DVDrip, WEB-DLRip, HDrip] (DUB, MVO) [ 1.92 GB ] Вы умрете или мы вернем вам деньги / Dead in a Week: Or Your Money Back [2018 BDRip-AVC] bober100 Скачать
7 | 0
Фильмы [HD 720p, 1080p] (Хороший звук DUB, MVO) [ 7.1 GB ] Вы умрете или мы вернем вам деньги / Dead in a Week: Or Your Money Back [2018 BDRip 1080p] bober100 Скачать
7 | 0
Фильмы 2018 [DVDrip, WEB-DLRip, HDrip] (DUB, MVO) [ 1.42 GB ] Вы умрете или мы вернем вам деньги / Dead in a Week: Or Your Money Back [2018 BDRip] - Twi7ter Скачать
19 | 0
Фильмы [HD 720p, 1080p] (Хороший звук DUB, MVO) [ 3.82 GB ] Вы умрете или мы вернем вам деньги / Dead in a Week: Or Your Money Back [2018 BDRip 720p] bober100 Скачать
6 | 0
Фильмы 2018 [DVDrip, WEB-DLRip, HDrip] (DUB, MVO) [ 745 MB ] Вы умрете или мы вернем вам деньги / Dead in a Week: Or Your Money Back [2018 BDRip] bober100 Скачать
1 | 0

28-11-2019 20:33  

Отключить всю рекламу на сайте

    Дорогой пользователь! Огромная просьба, поблагодарите релизера, оцените раздачу и оставьте свои комментарий, если Вы скачали Вы умрете, или мы вернем вам деньги через торрент бесплатно! Внесите свою лепту в развитие PiratBit!
    Комментировать посты могут только пользователи прошедшие не сложную регистрацию
    Показать сообщения:    

    Вы умрете, или мы вернем вам деньги через торрент
    Скачать бесплатно Вы умрете, или мы вернем вам деньги
    Вы умрете, или мы вернем вам деньги скачать торрент
    Вы умрете, или мы вернем вам деньги смотреть онлайн
    Cкачать фильм Вы умрете, или мы вернем вам деньги бесплатно
    Вы умрете, или мы вернем вам деньги скачать торрент в хорошем качестве
    Вы умрете, или мы вернем вам деньги смотреть онлайн бесплатно в хорошем качестве


    Вы не можете начинать темы
    Вы не можете отвечать на сообщения
    Вы не можете редактировать свои сообщения
    Вы не можете удалять свои сообщения
    Вы не можете голосовать в опросах
    Вы не можете прикреплять файлы к сообщениям
    Вы можете скачивать файлы