Ссылка на приватное зеркало всего за 1$. Внимание количество ограничено!!!

OK

1+1

iTunes

мы

OK

1

WEB-DLRip

Джокер

Пифагор

Ведьмак / The Witcher сериал

Лицензия

ПШазам

ОК

Оно 2

iTunes

30
pack

Вам бонус

ВАЖНО

!!Акция!!

Alien_RageХит недели

RePack

Resident Evil 21

ИГРА 18+

pack

RePack

jed

!!Акция!!

Alien_Rage

RePack

fifa19

RePack

Assassins Creed: Odyssey

RePack

NEED FOR SPEED™ PAYBACK

4 сезон

9 сезон

Бесстыжие 9 сезон

Все сериалы

все сериалы на PB.wtf

RePack

FAR CRY 5
  

Вы умрете, или мы вернем вам деньги / Dead in a Week: Or Your Money Back (Том Эдмундс) [2018, боевик, комедия, BDRip 1080p] DUB [iTunes] pb.wtf

Вы умрете, или мы вернем вам деньги через торрент pb.wtf

Раздают: 5 [ 25 KB/s ]
Размер: 7.1 GB | Добавлен: 1 год назад | Торрент скачан:1508 раз
Скачать  

30-12-2018 03:00 Вы умрете, или мы вернем вам деньги Скачать торрент  

Вы умрете, или мы вернем вам деньги / Dead in a Week: Or Your Money Back Год выпуска: 2018
Страна: Великобритания
Жанр: боевик, комедия
Продолжительность: 01:30:14
Перевод: Дублированный | iTunes
Субтитры: отсутствуют

Режиссер: Том Эдмундс

rating

В ролях:

Кристофер Экклстон, Анайрин Барнард, Том Уилкинсон, Фрейя Мавор, Гетин Энтони, Найджел Линдсэй, Мэрион Бэйли, Велибор Топич, Марсия Уоррен, Эмма Кэмпбелл-Джонс

Описание:

После очередной неудавшейся попытки свести счеты с жизнью незадачливый писатель Уильям обращается к услугам наемного убийцы Лесли - неумолимого ангела смерти из «Гильдии Убийц» - организации, готовой оказать помощь всякому, кто нуждается в быстром и безболезненном уходе из жизни. У Лесли доброе сердце, но нетвердая рука. Начальство мечтает отправить его на пенсию, а подвернувшийся контракт - единственный шанс отсрочить неизбежное. Однако в дело вмешивается случай. Уильяму вдруг улыбнулась судьба: он влюбляется...

Качество: BDRip 1080p
Формат: MKV

Видео: MPEG-4 AVC, 1920x1036, 10400 kbps, 24,000 fps
Аудио#1: русский, AC3, 5.1 ch, 48 kHz, 384 kbps | iTunes
Аудио#2: английский, AC3, 5.1 ch, 48 kHz, 448 kbps | оригинал
скриншот   скриншот   скриншот   скриншот   скриншот  

General
Уникальный идентификатор : 224502246805469295983778055582359157121 (0xA8E58F5A39CF17BEAE4201DC5262F981)
Полное имя : F:TorrentDeadinaWeekOrYourMoneyBackBDRip1080p.mkv
Формат : Matroska
Версия формата : Version 4 / Version 2
Размер файла : 7.10 GiB
Продолжительность : 1 h 30 min
Общий поток : 11.3 Mb/s
Дата кодирования : UTC 2018-12-29 22:43:32
Программа кодирования : mkvmerge v9.5.0 ('Quiet Fire') 64bit
Библиотека кодирования : libebml v1.3.4 + libmatroska v1.4.5

Video
Идентификатор : 1
Формат : AVC
Формат/Информация : Advanced Video Codec
Профиль формата : High@L4.1
Настройки формата : CABAC / 4 Ref Frames
Параметр CABAC формата : Yes
Параметр RefFrames формата : 4 frames
Идентификатор кодека : V_MPEG4/ISO/AVC
Продолжительность : 1 h 30 min
Битрейт : 10.4 Mb/s
Ширина : 1 920 pixels
Высота : 1 036 pixels
Соотношение сторон : 1.85:1
Режим частоты кадров : Constant
Частота кадров : 24.000 FPS
Цветовое пространство : YUV
Субдискретизация насыщенности : 4:2:0
Битовая глубина : 8 bits
Тип развёртки : Progressive
Бит/(Пиксели*Кадры) : 0.219
Размер потока : 6.58 GiB (93%)
Библиотека кодирования : x264 core 157 r2935M 545de2f
Настройки программы : cabac=1 / ref=4 / deblock=1:-1:-1 / analyse=0x3:0x113 / me=umh / subme=11 / psy=1 / psy_rd=1.00:0.00 / mixed_ref=1 / me_range=32 / chroma_me=1 / trellis=2 / 8x8dct=1 / cqm=0 / deadzone=21,11 / fast_pskip=0 / chroma_qp_offset=-2 / threads=9 / lookahead_threads=2 / sliced_threads=0 / nr=0 / decimate=0 / interlaced=0 / bluray_compat=0 / constrained_intra=0 / bframes=12 / b_pyramid=2 / b_adapt=2 / b_bias=0 / direct=3 / weightb=1 / open_gop=0 / weightp=2 / keyint=240 / keyint_min=24 / scenecut=40 / intra_refresh=0 / rc_lookahead=120 / rc=2pass / mbtree=0 / bitrate=10441 / ratetol=1.0 / qcomp=0.70 / qpmin=0 / qpmax=69 / qpstep=4 / cplxblur=20.0 / qblur=0.5 / vbv_maxrate=50000 / vbv_bufsize=62500 / nal_hrd=none / filler=0 / ip_ratio=1.40 / pb_ratio=1.30 / aq=2:0.80
Язык : English
Default : Yes
Forced : No
Цветовой диапазон : Limited
Основные цвета : BT.709
Характеристики трансфера : BT.709
Коэффициенты матрицы : BT.709

Audio #1
Идентификатор : 2
Формат : AC-3
Формат/Информация : Audio Coding 3
Идентификатор кодека : A_AC3
Продолжительность : 1 h 30 min
Вид битрейта : Constant
Битрейт : 384 kb/s
Каналы : 6 channels
Расположение каналов : Front: L C R, Side: L R, LFE
Частота : 48.0 kHz
Частота кадров : 31.250 FPS (1536 SPF)
Битовая глубина : 16 bits
Метод сжатия : Lossy
Размер потока : 248 MiB (3%)
Язык : Russian
Default : Yes
Forced : No

Audio #2
Идентификатор : 3
Формат : AC-3
Формат/Информация : Audio Coding 3
Идентификатор кодека : A_AC3
Продолжительность : 1 h 30 min
Вид битрейта : Constant
Битрейт : 448 kb/s
Каналы : 6 channels
Расположение каналов : Front: L C R, Side: L R, LFE
Частота : 48.0 kHz
Частота кадров : 31.250 FPS (1536 SPF)
Битовая глубина : 16 bits
Метод сжатия : Lossy
Размер потока : 289 MiB (4%)
Язык : English
Default : No
Forced : No

Menu
00:00:00.000 : :Chapter 01
00:07:10.458 : :Chapter 02
00:15:31.416 : :Chapter 03
00:22:29.583 : :Chapter 04
00:30:59.291 : :Chapter 05
00:37:58.625 : :Chapter 06
00:45:24.625 : :Chapter 07
00:54:32.083 : :Chapter 08
01:00:05.416 : :Chapter 09
01:09:17.041 : :Chapter 10
01:15:42.208 : :Chapter 11
01:22:34.458 : :Chapter 12

pb.wtf



Скачать Вы умрете, или мы вернем вам деньги через торрент http://pic1.kartinco.top/images/12/u5eyd.jpg Скачать фильм Вы умрете, или мы вернем вам деньги через торрент бесплантно в хорошем качестве Описание: После очередной неудавшейся попытки свести счеты с жизнью незадачливый писатель Уильям обращается к услугам наемного убийцы Лесли ... 9.4 10 32
Info! Золотая раздача, скачанное не засчитывается.
Торрент: Зарегистрирован [2018-12-30 03:00] · скачан: 1 508 раз
Статус: √ проверено
Размер: 7.1 GB
Как cкачать? Как скачать Вы умрете, или мы вернем вам деньги через торрент | qTorrent

% Раздел Тема Автор DL S | L
Фильмы 2018 [DVDrip, WEB-DLRip, HDrip] (DUB, MVO) [ 1.92 GB ] Вы умрете или мы вернем вам деньги / Dead in a Week: Or Your Money Back [2018 BDRip-AVC] bober100 Скачать
4 | 0
Фильмы 2018 [DVDrip, WEB-DLRip, HDrip] (DUB, MVO) [ 1.42 GB ] Вы умрете или мы вернем вам деньги / Dead in a Week: Or Your Money Back [2018 BDRip] - Twi7ter Скачать
15 | 0
Фильмы [HD 720p, 1080p] (Хороший звук DUB, MVO) [ 3.82 GB ] Вы умрете или мы вернем вам деньги / Dead in a Week: Or Your Money Back [2018 BDRip 720p] bober100 Скачать
4 | 0
Фильмы 2018 [DVDrip, WEB-DLRip, HDrip] (DUB, MVO) [ 745 MB ] Вы умрете или мы вернем вам деньги / Dead in a Week: Or Your Money Back [2018 BDRip] bober100 Скачать
2 | 0
Фильмы 2018 [DVDrip, WEB-DLRip, HDrip] (DUB, MVO) [ 1.43 GB ] Вы умрете или мы вернем вам деньги / Dead in a Week: Or Your Money Back [2018 BDRip] bober100 Скачать
3 | 0

28-11-2019 20:33  

Отключить всю рекламу на сайте

30-12-2018 08:36 Вы умрете, или мы вернем вам деньги Скачать торрент  

Цитата:

Вы умрете, или мы вернем вам деньги через торрент

pb.wtf



30-12-2018 11:41 Вы умрете, или мы вернем вам деньги Скачать торрент  

Corsar305, ОРНУЛ)))))))pb.wtf



05-01-2019 11:20 Вы умрете, или мы вернем вам деньги Скачать торрент  

))придеться смотретьpb.wtf



06-01-2019 23:08 Вы умрете, или мы вернем вам деньги Скачать торрент  

Потрясный фильм pb.wtf



09-01-2019 23:49 Вы умрете, или мы вернем вам деньги Скачать торрент  

Боже мой, зачем снимать ТАКУЮ ХРЕНЬ! Фильм основан на событиях сауцидального отношения к жизни - мир сошел с ума... Более того, показывают, что это лучший способ выяснить смысл жизни. Весь сюжет пронизан смыслом - сдохни и особо не переживай за это! Фильм просто какая-то ЖЕСТЬ. Осадок - опатия!pb.wtf



12-01-2019 08:36 Вы умрете, или мы вернем вам деньги Скачать торрент  

Сасиб pb.wtf



14-01-2019 18:24 Вы умрете, или мы вернем вам деньги Скачать торрент  

Очень плохой фильм!Я думал намного лучше будет! При просмотре 2 раза перданул так нормально, жене не понравилось, короче плохой фильмpb.wtf



    Дорогой пользователь! Огромная просьба, поблагодарите релизера, оцените раздачу и оставьте свои комментарий, если Вы скачали Вы умрете, или мы вернем вам деньги через торрент бесплатно! Внесите свою лепту в развитие PiratBit!
    Комментировать посты могут только пользователи прошедшие не сложную регистрацию
    Показать сообщения:    

    Вы умрете, или мы вернем вам деньги через торрент
    Скачать бесплатно Вы умрете, или мы вернем вам деньги
    Вы умрете, или мы вернем вам деньги скачать торрент
    Вы умрете, или мы вернем вам деньги смотреть онлайн
    Cкачать фильм Вы умрете, или мы вернем вам деньги бесплатно
    Вы умрете, или мы вернем вам деньги скачать торрент в хорошем качестве
    Вы умрете, или мы вернем вам деньги смотреть онлайн бесплатно в хорошем качестве


    Вы не можете начинать темы
    Вы не можете отвечать на сообщения
    Вы не можете редактировать свои сообщения
    Вы не можете удалять свои сообщения
    Вы не можете голосовать в опросах
    Вы не можете прикреплять файлы к сообщениям
    Вы можете скачивать файлы