Достать ножи: Стеклянная луковица

MVO

Добыча

Дубляж

Уэнсдэй

1 сезон

Тор

Дубляж

13 клиническая

1 сезон

Жестокая ночь

MVO

Одни из нас

1 сезон

Deluxe

pack

Рекомендуем

30

Пиратка

ВАЖНО

ВАЖНО

Ghostwire

Пиратка

jed

RePack

nioh2

RePack

RDR2

RePack

NEED FOR SPEED™ PAYBACK

RePack

скачать торрент

Кинопоиск HD

Острые козырьки 6 сезон

6 сезон

FAR CRY 6

RePack

скачать торрент

Лицензия

скачать торрент

MVO

1

1 сезон

скачать торрент

1 сезон

скачать торрент

Лицензия

  

Пережить Рождество / Surviving Christmas / 2004 (Майк Митчелл) [2004, мелодрама, комедия, BDRip 720p ] Дубляж, DVO, 2 x AVO

Пережить Рождество через торрент pb.wtf

Размер: 5.34 GB | Добавлен: 4 года назад | Торрент скачан:62 раза
Смотреть онлайн | Скачать | Поддержите нас   

30-12-2018 10:57 Пережить Рождество Скачать торрент  

Название: Пережить Рождество
Оригинальное название: Surviving Christmas
Год выпуска: 2004
Страна: США
Жанр: мелодрама, комедия
Продолжительность: 01:30:43
Перевод: дублированный, профессиональный двухголосый, авторский

Режиссер: Майк Митчелл
В ролях: Бен Аффлек, Джеймс Гандольфини, Кристина Эпплгейт, Кэтрин О`Хара, Джош Цуккерман, Билл Мэйси, Дженнифер Моррисон, Удо Кир, Дэвид Селби, Стефани Фэраси, Стивен Рут, Сай Ричардсон, Тэнджи Эмброуз, Джон 'Б.Дж.' Брайант, Питер Джейсон, Фил Льюис, Тамблуид, Кейт Хендирксон, Бриджитт Хо, Хейли Ноэль Джонсон, Шон Маркетт, Кэйтлин Фейн, Аманда Фейн, Кент Осборн, Билл Саито, Майк Белл, Эми Халлоран, Джош Сигел, К. Трой Зестос, Соня Эдди

Описание: Опостылевшая рутинная жизнь богача Дрю Лэтама приводит его на Рождество в дом своего детства. И даже тот факт, что дом заселён теперь другими людьми, не может испортить Дрю настроение. За солидное вознаграждение он предлагает семейке Валко на время стать его роднёй, и сам мечтает отметить праздник в их кругу. Вот только деньги кружат голову далеко не всем его новым родственникам, да и сами Валко, кажется, представляют собой редкую семейку психопатов...

]

Качество: BDRip 720p
Формат: MKV
Видео: MPEG-4 AVC, 6249 Кбит/с, 1280x720, 23.976 кадр/c
Аудио 1: русский, AC3, 384 kbps, 6 ch, 48 kHz [дублированный, iTunes]
Аудио 2: русский, AC3, 448 kbps, 6 ch, 48 kHz [закадровый двухголосый, Tycoon]
Аудио 3: русский, AC3, 448 kbps, 6 ch, 48 kHz [авторский, Сергей Визгунов]
Аудио 4: русский, AC3, 448 kbps, 6 ch, 48 kHz [авторский, Юрий Немахов]
Аудио 5: английский, AC3, 448 kbps, 6 ch, 48 kHz [оригинал]
Субтитры 1: русские
Субтитры 2: английские
Главы/чаптеры
Общее
Уникальный идентификатор : 231306706809938970200207727584653668555 (0xAE040D21E26CE5328510C3CD1FB4F0CB)
Полное имя : D:\Video\Пережить Рождество.2004.BDRip 720p by msltel.mkv
Формат : Matroska
Версия формата : Version 4
Размер файла : 5,34 Гбайт
Продолжительность : 1 ч. 30 м.
Общий поток : 8427 Кбит/сек
Название фильма : Rip by msltel
Дата кодирования : UTC 2018-12-30 14:31:57
Программа кодирования : mkvmerge v8.2.0 ('World of Adventure') 64bit
Библиотека кодирования : libebml v1.3.1 + libmatroska v1.4.2

Видео
Идентификатор : 1
Формат : AVC
Формат/Информация : Advanced Video Codec
Профиль формата : [email protected]
Настройки формата : CABAC / 9 Ref Frames
Параметр CABAC формата : Да
Параметр RefFrames формата : 9 кадров
Идентификатор кодека : V_MPEG4/ISO/AVC
Продолжительность : 1 ч. 30 м.
Битрейт : 6249 Кбит/сек
Ширина : 1280 пикселей
Высота : 720 пикселей
Соотношение сторон : 16:9
Режим частоты кадров : Постоянный
Частота кадров : 23,976 (24000/1001) кадра/сек
Цветовое пространство : YUV
Субдискретизация насыщенности : 4:2:0
Битовая глубина : 8 бит
Тип развёртки : Прогрессивная
Бит/(Пиксели*Кадры) : 0.283
Размер потока : 3,96 Гбайт (74%)
Библиотека кодирования : x264 core 157 r2935 545de2f
Настройки программы : cabac=1 / ref=9 / deblock=1:-2:-2 / analyse=0x3:0x113 / me=umh / subme=11 / psy=1 / psy_rd=1.00:0.15 / mixed_ref=1 / me_range=32 / chroma_me=1 / trellis=2 / 8x8dct=1 / cqm=0 / deadzone=21,11 / fast_pskip=0 / chroma_qp_offset=-3 / threads=6 / lookahead_threads=1 / sliced_threads=0 / nr=0 / decimate=1 / interlaced=0 / bluray_compat=0 / constrained_intra=0 / bframes=10 / b_pyramid=2 / b_adapt=2 / b_bias=0 / direct=1 / weightb=1 / open_gop=0 / weightp=2 / keyint=230 / keyint_min=23 / scenecut=40 / intra_refresh=0 / rc_lookahead=40 / rc=crf / mbtree=0 / crf=18.0 / qcomp=0.60 / qpmin=0 / qpmax=69 / qpstep=4 / vbv_maxrate=62500 / vbv_bufsize=78125 / crf_max=0.0 / nal_hrd=none / filler=0 / ip_ratio=1.40 / pb_ratio=1.30 / aq=1:1.00
Язык : English
Default : Да
Forced : Нет

Аудио #1
Идентификатор : 2
Формат : AC-3
Формат/Информация : Audio Coding 3
Коммерческое название : Dolby Digital
Идентификатор кодека : A_AC3
Продолжительность : 1 ч. 30 м.
Вид битрейта : Постоянный
Битрейт : 384 Кбит/сек
Каналы : 6 каналов
Channel layout : L R C LFE Ls Rs
Частота : 48,0 КГц
Частота кадров : 31,250 кадров/сек (1536 SPF)
Битовая глубина : 16 бит
Метод сжатия : С потерями
Размер потока : 249 Мбайт (5%)
Заголовок : Дубляж iTunes
Язык : Russian
ServiceKind/String : Complete Main
Default : Да
Forced : Нет

Аудио #2
Идентификатор : 3
Формат : AC-3
Формат/Информация : Audio Coding 3
Коммерческое название : Dolby Digital
Идентификатор кодека : A_AC3
Продолжительность : 1 ч. 30 м.
Вид битрейта : Постоянный
Битрейт : 448 Кбит/сек
Каналы : 6 каналов
Channel layout : L R C LFE Ls Rs
Частота : 48,0 КГц
Частота кадров : 31,250 кадров/сек (1536 SPF)
Битовая глубина : 16 бит
Метод сжатия : С потерями
Размер потока : 291 Мбайт (5%)
Заголовок : DVO Tycoon
Язык : Russian
ServiceKind/String : Complete Main
Default : Нет
Forced : Нет

Аудио #3
Идентификатор : 4
Формат : AC-3
Формат/Информация : Audio Coding 3
Коммерческое название : Dolby Digital
Идентификатор кодека : A_AC3
Продолжительность : 1 ч. 30 м.
Вид битрейта : Постоянный
Битрейт : 448 Кбит/сек
Каналы : 6 каналов
Channel layout : L R C LFE Ls Rs
Частота : 48,0 КГц
Частота кадров : 31,250 кадров/сек (1536 SPF)
Битовая глубина : 16 бит
Метод сжатия : С потерями
Размер потока : 291 Мбайт (5%)
Заголовок : Сергей Визгунов
Язык : Russian
ServiceKind/String : Complete Main
Default : Нет
Forced : Нет

Аудио #4
Идентификатор : 5
Формат : AC-3
Формат/Информация : Audio Coding 3
Коммерческое название : Dolby Digital
Идентификатор кодека : A_AC3
Продолжительность : 1 ч. 30 м.
Вид битрейта : Постоянный
Битрейт : 448 Кбит/сек
Каналы : 6 каналов
Channel layout : L R C LFE Ls Rs
Частота : 48,0 КГц
Частота кадров : 31,250 кадров/сек (1536 SPF)
Битовая глубина : 16 бит
Метод сжатия : С потерями
Размер потока : 291 Мбайт (5%)
Заголовок : Юрий Немахов
Язык : Russian
ServiceKind/String : Complete Main
Default : Нет
Forced : Нет

Аудио #5
Идентификатор : 6
Формат : AC-3
Формат/Информация : Audio Coding 3
Коммерческое название : Dolby Digital
Идентификатор кодека : A_AC3
Продолжительность : 1 ч. 30 м.
Вид битрейта : Постоянный
Битрейт : 448 Кбит/сек
Каналы : 6 каналов
Channel layout : L R C LFE Ls Rs
Частота : 48,0 КГц
Частота кадров : 31,250 кадров/сек (1536 SPF)
Битовая глубина : 16 бит
Метод сжатия : С потерями
Размер потока : 291 Мбайт (5%)
Заголовок : original
Язык : English
ServiceKind/String : Complete Main
Default : Нет
Forced : Нет

Текст #1
Идентификатор : 7
Формат : UTF-8
Идентификатор кодека : S_TEXT/UTF8
Идентификатор кодека/Информация : UTF-8 Plain Text
Продолжительность : 1 ч. 23 м.
Битрейт : 121 бит/сек
ElementCount : 1348
Размер потока : 74,4 Кбайт (0%)
Заголовок : русские
Язык : Russian
Default : Нет
Forced : Нет

Текст #2
Идентификатор : 8
Формат : UTF-8
Идентификатор кодека : S_TEXT/UTF8
Идентификатор кодека/Информация : UTF-8 Plain Text
Продолжительность : 1 ч. 28 м.
Битрейт : 71 бит/сек
ElementCount : 1383
Размер потока : 46,8 Кбайт (0%)
Заголовок : английские
Язык : Russian
Default : Нет
Forced : Нет

Меню
00:00:00.000 : :Chapter 1
00:02:39.242 : :Chapter 2
00:08:42.563 : :Chapter 3
00:13:41.737 : :Chapter 4
00:17:21.749 : :Chapter 5
00:19:51.982 : :Chapter 6
00:22:59.503 : :Chapter 7
00:27:35.987 : :Chapter 8
00:29:20.133 : :Chapter 9
00:34:17.305 : :Chapter 10
00:36:38.279 : :Chapter 11
00:43:38.616 : :Chapter 12
00:47:00.734 : :Chapter 13
00:50:28.233 : :Chapter 14
00:52:43.493 : :Chapter 15
00:56:16.456 : :Chapter 16
01:00:00.597 : :Chapter 17
01:05:12.825 : :Chapter 18
01:08:10.753 : :Chapter 19
01:11:46.844 : :Chapter 20
01:15:40.077 : :Chapter 21
01:18:29.955 : :Chapter 22
01:21:34.848 : :Chapter 23
01:25:00.637 : :Chapter 24
01:30:36.764 : :Chapter 25



Скачать Пережить Рождество через торрент https://a.radikal.ru/a41/1812/73/43b131d64ecb.jpg Скачать, смотреть онлайн Пережить Рождество бесплантно в хорошем качестве Описание: Опостылевшая рутинная жизнь богача Дрю Лэтама приводит его на Рождество в дом своего детства. И даже тот факт, что дом заселён ... 10 10 1
Info! Золотая раздача, скачанное не засчитывается.
Торрент: Зарегистрирован [2018-12-30 10:57] · скачан: 62 раз
Статус: √ проверено
Размер: 5.34 GB
Как cкачать? Как скачать Пережить Рождество через торрент | UTorrent

28-11-2019 20:33  


Отключить вcю реклaмy на сайте, в т.ч. и в плеере онлайн просмотра!

    Дорогой пользователь! Огромная просьба, поблагодарите релизера, оцените раздачу и оставьте свои комментарий, если Вы скачали Пережить Рождество через торрент бесплатно!!
    Комментировать посты могут только пользователи прошедшие не сложную регистрацию
    Показать сообщения:    


    Пережить Рождество через торрент
    Скачать бесплатно Пережить Рождество
    Пережить Рождество скачать торрент
    Пережить Рождество смотреть онлайн
    Cкачать фильм Пережить Рождество бесплатно
    Пережить Рождество скачать торрент в хорошем качестве
    Пережить Рождество смотреть онлайн бесплатно в хорошем качестве
    Вы не можете начинать темы
    Вы не можете отвечать на сообщения
    Вы не можете редактировать свои сообщения
    Вы не можете удалять свои сообщения
    Вы не можете голосовать в опросах
    Вы не можете прикреплять файлы к сообщениям
    Вы можете скачивать файлы
    Пережить Рождество / Surviving Christmas / 2004 [2004, мелодрама, комедия, BDRip 720p ] Дубляж, DVO, 2 x AVO смотреть онлайн, скачать торрент picoco.icu