Ссылка на приватное зеркало нашего сайта всего за 1$. Внимание количество ограничено!!!

2 сезон

iTunes

iTunes

1

iTunes

iTunes

iTunes

WEBRip

iTunes

30
pack

Вам бонус

ВАЖНО

!!Акция!!

Alien_RageХит недели

RePack

Horizon Zero Dawn

ИГРА 18+

pack

RePack

jed

!!Акция!!

Alien_Rage

RePack

fifa19

RePack

Assassins Creed: Odyssey

RePack

NEED FOR SPEED™ PAYBACK

4 сезон

9 сезон

Бесстыжие 9 сезон

Все сериалы

все сериалы на PB.wtf

RePack

FAR CRY 5
  

Черное зеркало: Брандашмыг / Black Mirror: Bandersnatch (Дэвид Слэйд) [2018, фантастика, триллер, драма, детектив, WEB-DL 720p] DUB [Line] pb.wtf

Черное зеркало: Брандашмыг через торрент pb.wtf

Размер: 3.52 GB | Добавлен: 1 год 8 мес. назад | Торрент скачан:57 раз
Скачать  

30-12-2018 11:36 Черное зеркало: Брандашмыг Скачать торрент  

Черное зеркало: Брандашмыг / Black Mirror: Bandersnatch Год выпуска: 2018
Страна: США
Жанр: фантастика, триллер, драма, детектив
Продолжительность: 01:35:56
Перевод : Дублированный | Line
Cубтитры: нет

Режиссер: Дэвид Слэйд

rating скриншот  

В ролях:

Азим Чаудхри, Элис Лоу, Уилл Поултер, Финн Уайтхед и др.

Описание:

1984 год. Молодой программист Стефан с многолетним чувством вины за смерть матери пытается написать компьютерную игру по фантастическому роману. Вскоре реальность искажается, создавая невообразимую путаницу в и без того нездоровом сознании парня.

Качество: WEB-DL 720p
Формат: MKV

Видео: h.264,4 874 kb/s, 1280x584
Аудио#1: Русский, (AC3, 2 ch, 384 Кбит/с)
скриншот  скриншот  скриншот  

Общее
Уникальный идентификатор : 236434182670796476024613704308540709254 (0xB1DF9135DEB7DEAFABED7E181A921986)
Полное имя : D:\Black.Mirror.Bandersnatch.2018.D.WEB-DL.72Op_KOSHARA.mkv
Формат : Matroska
Версия формата : Version 2
Размер файла : 3,52 Гбайт
Продолжительность : 1 ч. 35 м.
Режим общего битрейта : Переменный
Общий поток : 5260 Кбит/сек
Дата кодирования : UTC 2018-12-30 03:48:02
Программа кодирования : mkvmerge v8.3.0 ('Over the Horizon') 64bit
Библиотека кодирования : libebml v1.3.1 + libmatroska v1.4.2

Видео
Идентификатор : 1
Формат : AVC
Формат/Информация : Advanced Video Codec
Профиль формата : High@L4.1
Параметр CABAC формата : Да
Параметр RefFrames формата : 4 кадра
Идентификатор кодека : V_MPEG4/ISO/AVC
Продолжительность : 1 ч. 35 м.
Вид битрейта : Переменный
Битрейт : 4874 Кбит/сек
Максимальный битрейт : 5500 Кбит/сек
Ширина : 1280 пикселей
Высота : 584 пикселя
Соотношение сторон : 2,2:1
Режим частоты кадров : Постоянный
Частота кадров : 23,976 (24000/1001) кадра/сек
Стандарт вещания : Component
Цветовое пространство : YUV
Субдискретизация насыщенности : 4:2:0
Битовая глубина : 8 бит
Тип развёртки : Прогрессивная
Бит/(Пиксели*Кадры) : 0.266
Размер потока : 3,20 Гбайт (91%)
Default : Да
Forced : Нет
Цветовой диапазон : Limited
Основные цвета : BT.709
Характеристики трансфера : BT.709
Коэффициенты матрицы : BT.709

Аудио
Идентификатор : 2
Формат : AC-3
Формат/Информация : Audio Coding 3
Расширение режима : CM (complete main)
Параметр Endianness формата : Big
Идентификатор кодека : A_AC3
Продолжительность : 1 ч. 35 м.
Вид битрейта : Постоянный
Битрейт : 384 Кбит/сек
Каналы : 6 каналов
Расположение каналов : Front: L C R, Side: L R, LFE
Частота : 48,0 КГц
Частота кадров : 31,250 кадров/сек (1536 spf)
Метод сжатия : С потерями
Размер потока : 264 Мбайт (7%)
Default : Да
Forced : Нет

pb.wtf



Скачать Черное зеркало: Брандашмыг через торрент https://i106.fastpic.ru/big/2018/1229/8a/2dd7148982df4421ae5c155c7d4cf88a.jpg Скачать фильм Черное зеркало: Брандашмыг через торрент бесплантно в хорошем качестве Описание: 1984 год. Молодой программист Стефан с многолетним чувством вины за смерть матери пытается написать компьютерную игру по ... 10 10 3
Торрент: Зарегистрирован [2018-12-30 11:36] · скачан: 57 раз
Статус: T временная
Размер: 3.52 GB
Как cкачать? Как скачать Черное зеркало: Брандашмыг через торрент | qTorrent

% Раздел Тема Автор DL S | L
T Фильмы 2018 [DVDrip, WEB-DLRip, HDrip] (DUB, MVO) [ 1.74 GB ] Черное зеркало: Брандашмыг / Black Mirror: Bandersnatch [2018 WEBRip-AVC] MVO [Profix Media] -Lexx- Скачать
2 | 0
Фильмы (WEB-DL 720p, 1080p) [ 3.67 GB ] Черное зеркало: Брандашмыг / Black Mirror: Bandersnatch [2018 WEBRip 1080p] DUB [Пифагор] bober100 Скачать
1 | 0
Фильмы (WEB-DL 720p, 1080p) [ 3.83 GB ] Черное зеркало: Брандашмыг / Black Mirror: Bandersnatch [2018 WEBRip 1080p] MVO [LostFilm] bober100 Скачать
1 | 0
Фильмы 2018 [DVDrip, WEB-DLRip, HDrip] (DUB, MVO) [ 1.46 GB ] Черное зеркало: Брандашмыг / Black Mirror: Bandersnatch [2018 WEBRip] MVO [LostFilm] bober100 Скачать
1 | 0
Фильмы (WEB-DL 720p, 1080p) [ 3.54 GB ] Черное зеркало: Брандашмыг / Black Mirror: Bandersnatch [2018 социальная сатира WEBRip 1080p] [MVO] killermax2013 Скачать
1 | 0
T Фильмы (мультфильмы) cо спонсором показа (Новинки AVI/MKV) [ 12.02 GB ] Черное зеркало: Брандашмыг / Black Mirror: Bandersnatch [2018 WEBRip 720p] [Полная версия 5 часов] MVO [BaibaKo] bober100 Скачать
1 | 0
T Фильмы (мультфильмы) cо спонсором показа (Новинки AVI/MKV) [ 1.37 GB ] Черное зеркало: Брандашмыг / Black Mirror: Bandersnatch [2018 WEB-DLRip] [Line] killermax2013 Скачать
2 | 0

28-11-2019 20:33  

Отключить всю рекламу на сайте

    Дорогой пользователь! Огромная просьба, поблагодарите релизера, оцените раздачу и оставьте свои комментарий, если Вы скачали Черное зеркало: Брандашмыг через торрент бесплатно! Внесите свою лепту в развитие PiratBit!
    Комментировать посты могут только пользователи прошедшие не сложную регистрацию
    Показать сообщения:    

    Черное зеркало: Брандашмыг через торрент
    Скачать бесплатно Черное зеркало: Брандашмыг
    Черное зеркало: Брандашмыг скачать торрент
    Черное зеркало: Брандашмыг смотреть онлайн
    Cкачать фильм Черное зеркало: Брандашмыг бесплатно
    Черное зеркало: Брандашмыг скачать торрент в хорошем качестве
    Черное зеркало: Брандашмыг смотреть онлайн бесплатно в хорошем качестве


    Вы не можете начинать темы
    Вы не можете отвечать на сообщения
    Вы не можете редактировать свои сообщения
    Вы не можете удалять свои сообщения
    Вы не можете голосовать в опросах
    Вы не можете прикреплять файлы к сообщениям
    Вы можете скачивать файлы