Ссылка на приватное зеркало нашего сайта всего за 1$. Внимание количество ограничено!!!

2 сезон

iTunes

iTunes

1

iTunes

iTunes

iTunes

WEBRip

iTunes

30
pack

Новость дня

ВАЖНО

!!Акция!!

Alien_RageХит недели

RePack

Horizon Zero Dawn

ИГРА 18+

pack

RePack

jed

!!Акция!!

Alien_Rage

RePack

fifa19

RePack

Assassins Creed: Odyssey

RePack

NEED FOR SPEED™ PAYBACK

4 сезон

9 сезон

Бесстыжие 9 сезон

Все сериалы

все сериалы на PB.wtf

RePack

FAR CRY 5
  

Черное зеркало: Брандашмыг / Black Mirror: Bandersnatch (Дэвид Слэйд) [2018, фантастика, триллер, драма, детектив, WEBRip 720p] [Полная версия 5 часов] MVO [BaibaKo] pb.wtf

Черное зеркало: Брандашмыг через торрент pb.wtf

Размер: 12.02 GB | Добавлен: 1 год 8 мес. назад | Торрент скачан:176 раз
Скачать  

30-12-2018 12:52 Черное зеркало: Брандашмыг Скачать торрент  

Черное зеркало: Брандашмыг / Black Mirror: Bandersnatch Год выпуска: 2018
Страна: США
Жанр: фантастика, триллер, драма, детектив
Продолжительность: 05:12:07
Перевод: Профессиональный (многоголосый, закадровый) |
Cубтитры: нет

Режиссер: Дэвид Слэйд

rating скриншот  

В ролях:

Азим Чаудхри, Элис Лоу, Уилл Поултер, Финн Уайтхед и др.

Описание:

1984 год. Молодой программист Стефан с многолетним чувством вины за смерть матери пытается написать компьютерную игру по фантастическому роману. Вскоре реальность искажается, создавая невообразимую путаницу в и без того нездоровом сознании парня.

Качество: WEBRip 720p | Полная версия 5 часов
Формат: MKV

Видео: AVC z High@L3.1, 4218 Кбит/сек, 1280x720 (1.778), 25,000 кадров/сек
Аудио#1 ru: AC3, 640 Кбит/сек, 6 каналов, 48,0 КГц
Аудио#2 en: AC3, 640 Кбит/сек, 6 каналов, 48,0 КГц

Общее
Уникальный идентификатор : 169667365431777835163199247331067051058 (0x7FA4BEF7B21461EE71C94E90903E3C32)
Полное имя : D:\Black.Mirror.s05e00.Bandersnatch.Full.Version.HD720p.WEBRip.Rus.Eng.BaibaKo.tv\Black.Mirror.s05e00.Bandersnatch.Full.Version.HD720p.WEBRip.Rus.Eng.BaibaKo.tv.mkv
Формат : Matroska
Версия формата : Version 4 / Version 2
Размер файла : 12,0 Гбайт
Продолжительность : 5 ч. 12 м.
Общий поток : 5500 Кбит/сек
Дата кодирования : UTC 2018-12-30 04:47:32
Программа кодирования : mkvmerge v20.0.0 ('I Am The Sun') 64-bit
Библиотека кодирования : libebml v1.3.5 + libmatroska v1.4.8

Видео
Идентификатор : 1
Формат : AVC
Формат/Информация : Advanced Video Codec
Профиль формата : High@L3.1
Параметр CABAC формата : Да
Параметр RefFrames формата : 3 кадра
Идентификатор кодека : V_MPEG4/ISO/AVC
Продолжительность : 5 ч. 12 м.
Битрейт : 4218 Кбит/сек
Ширина : 1280 пикселей
Высота : 720 пикселей
Соотношение сторон : 16:9
Режим частоты кадров : Постоянный
Частота кадров : 25,000 кадров/сек
Цветовое пространство : YUV
Субдискретизация насыщенности : 4:2:0
Битовая глубина : 8 бит
Тип развёртки : Прогрессивная
Бит/(Пиксели*Кадры) : 0.178
Размер потока : 8,99 Гбайт (75%)
Default : Да
Forced : Нет

Аудио #1
Идентификатор : 2
Формат : AC-3
Формат/Информация : Audio Coding 3
Расширение режима : CM (complete main)
Параметр Endianness формата : Big
Идентификатор кодека : A_AC3
Продолжительность : 5 ч. 12 м.
Вид битрейта : Постоянный
Битрейт : 640 Кбит/сек
Каналы : 6 каналов
Расположение каналов : Front: L C R, Side: L R, LFE
Частота : 48,0 КГц
Частота кадров : 31,250 кадров/сек (1536 spf)
Метод сжатия : С потерями
Размер потока : 1,40 Гбайт (12%)
Язык : Russian
Default : Нет
Forced : Нет

Аудио #2
Идентификатор : 3
Формат : AC-3
Формат/Информация : Audio Coding 3
Расширение режима : CM (complete main)
Параметр Endianness формата : Big
Идентификатор кодека : A_AC3
Продолжительность : 5 ч. 12 м.
Вид битрейта : Постоянный
Битрейт : 640 Кбит/сек
Каналы : 6 каналов
Расположение каналов : Front: L C R, Side: L R, LFE
Частота : 48,0 КГц
Частота кадров : 31,250 кадров/сек (1536 spf)
Метод сжатия : С потерями
Размер потока : 1,40 Гбайт (12%)
Язык : English
Default : Нет
Forced : Нет

pb.wtf



Скачать Черное зеркало: Брандашмыг через торрент http://pic1.kartinco.top/images/12/wueib.jpg Скачать фильм Черное зеркало: Брандашмыг через торрент бесплантно в хорошем качестве Описание: 1984 год. Молодой программист Стефан с многолетним чувством вины за смерть матери пытается написать компьютерную игру по ... 8.2 10 6
Торрент: Зарегистрирован [2018-12-30 12:52] · скачан: 176 раз
Статус: T временная
Размер: 12.02 GB
Как cкачать? Как скачать Черное зеркало: Брандашмыг через торрент | qTorrent

% Раздел Тема Автор DL S | L
T Фильмы 2018 [DVDrip, WEB-DLRip, HDrip] (DUB, MVO) [ 1.74 GB ] Черное зеркало: Брандашмыг / Black Mirror: Bandersnatch [2018 WEBRip-AVC] MVO [Profix Media] -Lexx- Скачать
1 | 0
Фильмы (WEB-DL 720p, 1080p) [ 3.67 GB ] Черное зеркало: Брандашмыг / Black Mirror: Bandersnatch [2018 WEBRip 1080p] DUB [Пифагор] bober100 Скачать
1 | 0
Фильмы (WEB-DL 720p, 1080p) [ 3.83 GB ] Черное зеркало: Брандашмыг / Black Mirror: Bandersnatch [2018 WEBRip 1080p] MVO [LostFilm] bober100 Скачать
1 | 0
Фильмы 2018 [DVDrip, WEB-DLRip, HDrip] (DUB, MVO) [ 1.46 GB ] Черное зеркало: Брандашмыг / Black Mirror: Bandersnatch [2018 WEBRip] MVO [LostFilm] bober100 Скачать
1 | 0
Фильмы (WEB-DL 720p, 1080p) [ 3.54 GB ] Черное зеркало: Брандашмыг / Black Mirror: Bandersnatch [2018 социальная сатира WEBRip 1080p] [MVO] killermax2013 Скачать
1 | 0
T Фильмы (мультфильмы) cо спонсором показа (Новинки AVI/MKV) [ 1.37 GB ] Черное зеркало: Брандашмыг / Black Mirror: Bandersnatch [2018 WEB-DLRip] [Line] killermax2013 Скачать
1 | 0
T Фильмы (мультфильмы) cо спонсором показа (Новинки AVI/MKV) [ 4 GB ] Черное зеркало: Брандашмыг / Black Mirror: Bandersnatch [2018 WEB-DL 1080p] DUB [Line] bober100 Скачать
1 | 0

28-11-2019 20:33  

Отключить всю рекламу на сайте

30-12-2018 13:19 Черное зеркало: Брандашмыг Скачать торрент  

"полная" в смысле "интерактивная", или непонятно в каком порядке смонтированные все кусочки?pb.wtf



30-12-2018 14:40 Черное зеркало: Брандашмыг Скачать торрент  

sergunka писал(а):

"интерактивная"

ТОЛЬКО в онлайн просмотре на нетфликсеpb.wtf



02-01-2019 14:28 Черное зеркало: Брандашмыг Скачать торрент  

нету смысла качать полную версию/ просто бред/ трата времени зря/ только на netfliks нужно смотреть online pb.wtf



02-01-2019 18:26 Черное зеркало: Брандашмыг Скачать торрент  

killermax2013 писал(а):

sergunka писал(а):

"интерактивная"

ТОЛЬКО в онлайн просмотре на нетфликсе

т.е.

Цитата:

непонятно в каком порядке смонтированные все кусочки

фактически "фарш", а не "полная версия"pb.wtf



    Дорогой пользователь! Огромная просьба, поблагодарите релизера, оцените раздачу и оставьте свои комментарий, если Вы скачали Черное зеркало: Брандашмыг через торрент бесплатно! Внесите свою лепту в развитие PiratBit!
    Комментировать посты могут только пользователи прошедшие не сложную регистрацию
    Показать сообщения:    

    Черное зеркало: Брандашмыг через торрент
    Скачать бесплатно Черное зеркало: Брандашмыг
    Черное зеркало: Брандашмыг скачать торрент
    Черное зеркало: Брандашмыг смотреть онлайн
    Cкачать фильм Черное зеркало: Брандашмыг бесплатно
    Черное зеркало: Брандашмыг скачать торрент в хорошем качестве
    Черное зеркало: Брандашмыг смотреть онлайн бесплатно в хорошем качестве


    Вы не можете начинать темы
    Вы не можете отвечать на сообщения
    Вы не можете редактировать свои сообщения
    Вы не можете удалять свои сообщения
    Вы не можете голосовать в опросах
    Вы не можете прикреплять файлы к сообщениям
    Вы можете скачивать файлы