Ссылка на приватное зеркало нашего сайта всего за 1$. Внимание количество ограничено!!!

2 сезон

iTunes

1 сезон

1

2 сезон

2 сезон

iTunes

1 сезон

RePack

30

Ultimate

ВАЖНО

ИГРА 18+

pack

RePack

MK11
pack

Забери бонус

RePack

jed

!!Акция!!

Alien_Rage

RePack

fifa19

RePack

Assassins Creed: Odyssey

RePack

NEED FOR SPEED™ PAYBACK

4 сезон

9 сезон

Бесстыжие 9 сезон

Все сериалы

все сериалы на PB.wtf

RePack

FAR CRY 5
  

Аромат / Perfume / Parfum / Сезон: 1 / Серии: 1-6 из 6 (Филипп Кадельбах / Philip Kadelbach) [2018, Триллер, драма, WEB-DLRip] [MVO] (АРК-ТВ Studio) pb.wtf

Аромат через торрент pb.wtf

Размер: 4.35 GB | Добавлен: 1 год 11 мес. назад | Торрент скачан:77 раз
Скачать  

30-12-2018 14:04 Аромат Скачать торрент  

Аромат | Perfume | Parfum
Год выпуска: 2018
Страна: Германия
Жанр: Триллер, драма
Продолжительность: ~ 01:00:00
Перевод: Профессиональный (многоголосый закадровый) | АРК-ТВ Studio и VSI International
Режиссёр: Филипп Кадельбах / Philip Kadelbach
В ролях: Фредерике Бехт, Наталья Белитски, Аугуст Диль, Кен Дукен, Кристиан Фридель, Марк Хоземанн, Юрген Маурер, Тристан Пюттер, Вотан Вильке Мёринг, Карлотта фон Фалькенхайн
Описание: Шестерых друзей по школе-интернату объединяет уникальная способность очень тонко чувствовать запахи. Они прибегают к убийству людей для создания идеального аромата, который смог бы влюбить в себя всех вокруг. Но группой начинает интересоваться полиция, и их общее дело оказывается под угрозой.


Качество: WEB-DLRip
Формат: AVI
Видео: XviD, 720x400, 25,000 кадров/сек, ~1500 Кбит/сек
Аудио Rus: MP3, 48 kHz, 2 ch, 128 Кбит/сек | АРК-ТВ Studio
Аудио Deu: MP3, 48 kHz, 2 ch, 128 Кбит/сек
Субтитры: Русские, немецкие, английские (Netflix)
Общее
Полное имя : E:\Parfum (Season 1) WEB-DLRip\Parfum.S01E01.WEB-DLRip.RGzsRutracker.[Wentworth_Miller].avi
Формат : AVI
Формат/Информация : Audio Video Interleave
Размер файла : 674 Мбайт
Продолжительность : 53 м. 12 с.
Общий поток : 1770 Кбит/сек
Программа кодирования : VirtualDubMod 1.5.10.3 | www.virtualdub-fr.org || (build 2550/release)
Библиотека кодирования : VirtualDubMod build 2550/release

Видео
Идентификатор : 0
Формат : MPEG-4 Visual
Профиль формата : Advanced Simple@L5
Настройки формата : BVOP2
Параметр BVOP формата : 2
Параметр QPel формата : Нет
Параметр GMC формата : Без точки перехода
Параметр матрицы формата : Default (MPEG)
Идентификатор кодека : XVID
Идентификатор кодека/Подсказка : XviD
Продолжительность : 53 м. 12 с.
Битрейт : 1500 Кбит/сек
Ширина : 720 пикселей
Высота : 400 пикселей
Соотношение сторон : 16:9
Частота кадров : 25,000 кадров/сек
Цветовое пространство : YUV
Субдискретизация насыщенности : 4:2:0
Битовая глубина : 8 бит
Тип развёртки : Прогрессивная
Метод сжатия : С потерями
Бит/(Пиксели*Кадры) : 0.208
Размер потока : 571 Мбайт (85%)
Библиотека кодирования : XviD 61

Аудио #1
Идентификатор : 1
Формат : MPEG Audio
Версия формата : Version 1
Профиль формата : Layer 3
Настройки формата : Joint stereo / MS Stereo
Идентификатор кодека : 55
Идентификатор кодека/Подсказка : MP3
Продолжительность : 53 м. 12 с.
Вид битрейта : Постоянный
Битрейт : 128 Кбит/сек
Каналы : 2 канала
Частота : 48,0 КГц
Метод сжатия : С потерями
Размер потока : 48,7 Мбайт (7%)
Выравнивание : Соединение по промежуткам
Продолжительность промежутка : 40 мс. (1,00 видеокадр)
Время предзагрузки промежутка : 504 мс.
Библиотека кодирования : LAME3.97

Аудио #2
Идентификатор : 2
Формат : MPEG Audio
Версия формата : Version 1
Профиль формата : Layer 3
Настройки формата : Joint stereo / MS Stereo
Идентификатор кодека : 55
Идентификатор кодека/Подсказка : MP3
Продолжительность : 53 м. 12 с.
Вид битрейта : Постоянный
Битрейт : 128 Кбит/сек
Каналы : 2 канала
Частота : 48,0 КГц
Метод сжатия : С потерями
Размер потока : 48,7 Мбайт (7%)
Выравнивание : Соединение по промежуткам
Продолжительность промежутка : 40 мс. (1,00 видеокадр)
Время предзагрузки промежутка : 504 мс.
Библиотека кодирования : LAME3.97

скриншот  скриншот   скриншот  
pb.wtf



Скачать Аромат через торрент https://i107.fastpic.ru/big/2018/1230/b7/259e675c25635b2ed98ff0919e9d2ab7.jpg Скачать фильм Аромат через торрент бесплантно в хорошем качестве Описание: Шестерых друзей по школе-интернату объединяет уникальная способность очень тонко чувствовать запахи. Они прибегают к убийству ... 5.5 10 2
Торрент: Зарегистрирован [2018-12-30 14:04] · скачан: 77 раз
Статус: √ проверено
Размер: 4.35 GB
Как cкачать? Как скачать Аромат через торрент | qTorrent

% Раздел Тема Автор DL S | L
Зарубежные сериалы [ 17.87 GB ] Аромат / Perfume / Parfum / Сезон: 1 / Серии: 1-6 из 6 [2018 WEB-DL 1080p] [MVO] killermax2013 Скачать
1 | 0

28-11-2019 20:33  

Отключить всю рекламу на сайте

    Дорогой пользователь! Огромная просьба, поблагодарите релизера, оцените раздачу и оставьте свои комментарий, если Вы скачали Аромат через торрент бесплатно! Внесите свою лепту в развитие PiratBit!
    Комментировать посты могут только пользователи прошедшие не сложную регистрацию
    Показать сообщения:    

    Аромат через торрент
    Скачать бесплатно Аромат
    Аромат скачать торрент
    Аромат смотреть онлайн
    Cкачать фильм Аромат бесплатно
    Аромат скачать торрент в хорошем качестве
    Аромат смотреть онлайн бесплатно в хорошем качестве


    Вы не можете начинать темы
    Вы не можете отвечать на сообщения
    Вы не можете редактировать свои сообщения
    Вы не можете удалять свои сообщения
    Вы не можете голосовать в опросах
    Вы не можете прикреплять файлы к сообщениям
    Вы можете скачивать файлы