Ссылка на приватное зеркало нашего сайта всего за 1$. Внимание количество ограничено!!!

2 сезон

iTunes

1 сезон

1

iTunes

iTunes

iTunes

1 сезон

RePack

30

ИГРА 18+

pack

ВАЖНО

!!Акция!!

Alien_RageХит недели

RePack

MK11
pack

Забери бонус

RePack

jed

!!Акция!!

Alien_Rage

RePack

fifa19

RePack

Assassins Creed: Odyssey

RePack

NEED FOR SPEED™ PAYBACK

4 сезон

9 сезон

Бесстыжие 9 сезон

Все сериалы

все сериалы на PB.wtf

RePack

FAR CRY 5
  

Вкус счастья / Серии: 1-4 из 4 (Александр Будённый) [2018, Мелодрама, WEB-DLRip] pb.wtf

Вкус счастья через торрент pb.wtf

Размер: 2.18 GB | Добавлен: 1 год 9 мес. назад | Торрент скачан:96 раз
Скачать  

30-12-2018 20:18 Вкус счастья Скачать торрент  

Вкус счастьяГод выпуска: 2018
Страна: Украина
Жанр: Мелодрама
Продолжительность: ~ 00:45:00 серия
Перевод: Не требуется
Субтитры: отсутствуют

Режиссер: Александр Будённый

В ролях:

Клавдия Дрозд, Анна Кошмал, Александр Пашков, Владимир Лилицкий, Михаил Химичев, Сталина Лагошняк, Алексей Смолка, Ксения Мишина, Влад Никитюк

Описание:

У Леры нет никого ближе и роднее, чем младшая сестра Наташа, которую она с 18 лет воспитывала сама. Чтобы сестра ни в чем не испытывала недостатка, Лера отказалась от своей мечты и не поступила в медицинский институт. Сестры живут душа в душу, пока однажды младшая не едет в столицу на поиски лучшей жизни. А потом и вообще девушкам приходится столкнуться друг с другом в борьбе за сердце одного мужчины. Но, к счастью, обеим хватает и ума, и сестринской любви, чтобы избежать полного разрыва. Лера уходит в сторону, чтобы Наташа была счастлива. И судьба награждает ее новой любовью...

Качество: WEB-DLRip
Формат: AVI

Видео: XviD build 73, 720x400 (16:9), 25.000 fps, ~ 1520 Kbps (~ 0.210 bit/pixel)
Аудио: 48.0 kHz, AC3, 2/0 ch, 192 kbps
скриншот  скриншот  скриншот  скриншот  скриншот  

General
Complete name : D:RazdachiVkus.Schastija.2018.XviD.WEB-DLRip.GeneralFilmVkus.Schastija.e01.avi
Format : AVI
Format/Info : Audio Video Interleave
File size : 557 MiB
Duration : 45 min 23 s
Overall bit rate : 1 715 kb/s
Writing application : VirtualDubMod 1.5.10.3 | www.virtualdub-fr.org || (build 2550/release)
Writing library : VirtualDubMod build 2550/release

Video
ID : 0
Format : MPEG-4 Visual
Format profile : Advanced Simple@L5
Format settings, BVOP : 1
Format settings, QPel : No
Format settings, GMC : No warppoints
Format settings, Matrix : Custom
Codec ID : XVID
Codec ID/Hint : XviD
Duration : 45 min 23 s
Bit rate : 1 513 kb/s
Width : 720 pixels
Height : 400 pixels
Display aspect ratio : 16:9
Frame rate : 25.000 FPS
Color space : YUV
Chroma subsampling : 4:2:0
Bit depth : 8 bits
Scan type : Progressive
Compression mode : Lossy
Bits/(Pixel*Frame) : 0.210
Stream size : 491 MiB (88%)
Writing library : XviD 73

Audio
ID : 1
Format : AC-3
Format/Info : Audio Coding 3
Format settings, Endianness : Big
Codec ID : 2000
Duration : 45 min 23 s
Bit rate mode : Constant
Bit rate : 192 kb/s
Channel(s) : 2 channels
Channel positions : Front: L R
Sampling rate : 48.0 kHz
Frame rate : 31.250 FPS (1536 SPF)
Bit depth : 16 bits
Compression mode : Lossy
Stream size : 62.3 MiB (11%)
Alignment : Split accross interleaves
Interleave, duration : 40 ms (1.00 video frame)
Interleave, preload duratio : 500 ms
Service kind : Complete Main

pb.wtf



Скачать Вкус счастья через торрент https://www.kino-teatr.ru/movie/posters/big/7/131847.jpg Скачать фильм Вкус счастья через торрент бесплантно в хорошем качестве Описание: У Леры нет никого ближе и роднее, чем младшая сестра Наташа, которую она с 18 лет воспитывала сама. Чтобы сестра ни в чем не ... 10 10 4
Info! Золотая раздача, скачанное не засчитывается.
Торрент: Зарегистрирован [2018-12-30 20:18] · скачан: 96 раз
Статус: √ проверено
Размер: 2.18 GB
Как cкачать? Как скачать Вкус счастья через торрент | qTorrent

28-11-2019 20:33  

Отключить всю рекламу на сайте

    Дорогой пользователь! Огромная просьба, поблагодарите релизера, оцените раздачу и оставьте свои комментарий, если Вы скачали Вкус счастья через торрент бесплатно! Внесите свою лепту в развитие PiratBit!
    Комментировать посты могут только пользователи прошедшие не сложную регистрацию
    Показать сообщения:    

    Вкус счастья через торрент
    Скачать бесплатно Вкус счастья
    Вкус счастья скачать торрент
    Вкус счастья смотреть онлайн
    Cкачать фильм Вкус счастья бесплатно
    Вкус счастья скачать торрент в хорошем качестве
    Вкус счастья смотреть онлайн бесплатно в хорошем качестве


    Вы не можете начинать темы
    Вы не можете отвечать на сообщения
    Вы не можете редактировать свои сообщения
    Вы не можете удалять свои сообщения
    Вы не можете голосовать в опросах
    Вы не можете прикреплять файлы к сообщениям
    Вы можете скачивать файлы