Ссылка на приватное зеркало нашего сайта всего за 1$. Внимание количество ограничено!!!

2 сезон

iTunes

1 сезон

1

2 сезон

2 сезон

iTunes

1 сезон

RePack

30

Ultimate

ВАЖНО

ИГРА 18+

pack

RePack

MK11
pack

Забери бонус

RePack

jed

!!Акция!!

Alien_Rage

RePack

fifa19

RePack

Assassins Creed: Odyssey

RePack

NEED FOR SPEED™ PAYBACK

4 сезон

9 сезон

Бесстыжие 9 сезон

Все сериалы

все сериалы на PB.wtf

RePack

FAR CRY 5
  

Крепкий орешек 4.0 / Live Free or Die Hard (Лен Уайзман ) [2007, боевик, триллер, приключения, UHD WEBRip 2160p] DUB + MVO + 2xAVO pb.wtf

Крепкий орешек 4.0 через торрент pb.wtf

Размер: 27.31 GB | Добавлен: 1 год 11 мес. назад | Торрент скачан:22 раза
Скачать  

31-12-2018 02:28 Крепкий орешек 4.0 Скачать торрент  

Крепкий орешек 4.0 / Live Free or Die Hard«Yippee Ki Yay Mo - John 6:27»
Год выпуска: 2007
Страна: США, Великобритания
Жанр: боевик, триллер, приключения
Продолжительность: 02:08:24
Перевод: Дублированный, профессиональный многоголосый, авторский
Субтритры: Русские (форсированные, полные), английские полные
Режиссер: Лен Уайзман
В ролях:

Брюс Уиллис (John McClane), Джастин Лонг (Matthew «Matt» Farrell), Тимоти Олифант (Thomas Gabriel), Мэгги Кью (Mai Linh), Клифф Кёртис (FBI Deputy Director Miguel Bowman), Джонатан Садовский (Trey), Мэри Элизабет Уинстэд (Lucy Gennaro McClane), Кевин Смит (Frederick «Warlock» Kaludis), Эндрю Фридман (Casper), Сирил Раффаэлли (Rand), Йорго Константин (Russo), Крис Палермо (Del)
Описание:
Мир снова под угрозой: террористы захватили контроль над глобальной компьютерной сетью. Повсюду воцаряется хаос, правительство и спецслужбы бессильны. Джон МакКлейн давно в отставке, но он не будет стоять в стороне, когда надо защищать семью. Однако в этот раз ему уже не справиться без помощника.
Рейтинг:

MPAA: PG-13 - Детям до 13 лет просмотр не желателен
Качество: UHD WEBRip 2160p
Формат: MKV
Видео: HEVC HDR, 24.4 Мбит/с, 3840x1600, 10 bit
Аудио №1: Russian / DTS / 5.1 / 48 kHz / 768 kbps Дубляж, Blu-ray CEE
Аудио №2: Russian / DTS / 5.1 / 48 kHz / 768 kbps Многоголосый закадровый, Киномания
Аудио №3: Russian / DTS / 5.1 / 48 kHz / 1509 kbps А. Гаврилов
Аудио №4: Russian / DTS / 5.1 / 48 kHz / 1509 kbps Ю. Живов
Аудио №5: English / DTS / 5.1 / 48 kHz / 1509 kbps
Навигация по главам: есть
General
Unique ID : 54026955530617681797299039281402334200 (0x28A53690BD4F85369D1E3363D0D3CBF8)
Complete name : W:\Downloads\Releases\Live.Free.or.Die.Hard.2007.WEBRip.HEVC.HDR.2160p.mkv
Format : Matroska
Format version : Version 4 / Version 2
File size : 27.3 GiB
Duration : 2 h 8 min
Overall bit rate : 30.4 Mb/s
Encoded date : UTC 2018-12-28 16:22:01
Writing application : mkvmerge v29.0.0 ('Like It Or Not') 64-bit
Writing library : libebml v1.3.6 + libmatroska v1.4.9
Attachments : poster.jpg

Video
ID : 1
Format : HEVC
Format/Info : High Efficiency Video Coding
Format profile : Main 10@L5@Main
Codec ID : V_MPEGH/ISO/HEVC
Duration : 2 h 8 min
Bit rate : 24.4 Mb/s
Width : 3 840 pixels
Height : 1 600 pixels
Display aspect ratio : 2.40:1
Frame rate mode : Constant
Frame rate : 23.976 (24000/1001) FPS
Color space : YUV
Chroma subsampling : 4:2:0
Bit depth : 10 bits
Bits/(Pixel*Frame) : 0.165
Stream size : 21.9 GiB (80%)
Default : Yes
Forced : No
Color range : Limited
Color primaries : BT.2020
Transfer characteristics : PQ
Matrix coefficients : BT.2020 non-constant
Mastering display color pri : BT.2020
Mastering display luminance : min: 0.0050 cd/m2, max: 1000 cd/m2
Maximum Content Light Level : 1340 cd/m2
Maximum Frame-Average Light : 973 cd/m2

Audio #1
ID : 2
Format : DTS
Format/Info : Digital Theater Systems
Codec ID : A_DTS
Duration : 2 h 8 min
Bit rate mode : Constant
Bit rate : 768 kb/s
Channel(s) : 6 channels
Channel positions : Front: L C R, Side: L R, LFE
Sampling rate : 48.0 kHz
Frame rate : 93.750 FPS (512 SPF)
Bit depth : 24 bits
Compression mode : Lossy
Stream size : 705 MiB (3%)
Title : Dub, Blu-ray CEE
Language : Russian
Default : Yes
Forced : No

Audio #2
ID : 3
Format : DTS
Format/Info : Digital Theater Systems
Codec ID : A_DTS
Duration : 2 h 8 min
Bit rate mode : Constant
Bit rate : 768 kb/s
Channel(s) : 6 channels
Channel positions : Front: L C R, Side: L R, LFE
Sampling rate : 48.0 kHz
Frame rate : 93.750 FPS (512 SPF)
Bit depth : 24 bits
Compression mode : Lossy
Stream size : 705 MiB (3%)
Title : MVO, Kinomania
Language : Russian
Default : No
Forced : No

Audio #3
ID : 4
Format : DTS
Format/Info : Digital Theater Systems
Codec ID : A_DTS
Duration : 2 h 8 min
Bit rate mode : Constant
Bit rate : 1 509 kb/s
Channel(s) : 6 channels
Channel positions : Front: L C R, Side: L R, LFE
Sampling rate : 48.0 kHz
Frame rate : 93.750 FPS (512 SPF)
Bit depth : 24 bits
Compression mode : Lossy
Stream size : 1.35 GiB (5%)
Title : VO, Gavrilov
Language : Russian
Default : No
Forced : No

Audio #4
ID : 5
Format : DTS
Format/Info : Digital Theater Systems
Codec ID : A_DTS
Duration : 2 h 8 min
Bit rate mode : Constant
Bit rate : 1 509 kb/s
Channel(s) : 6 channels
Channel positions : Front: L C R, Side: L R, LFE
Sampling rate : 48.0 kHz
Frame rate : 93.750 FPS (512 SPF)
Bit depth : 24 bits
Compression mode : Lossy
Stream size : 1.35 GiB (5%)
Title : VO, Jivov
Language : Russian
Default : No
Forced : No

Audio #5
ID : 6
Format : DTS
Format/Info : Digital Theater Systems
Codec ID : A_DTS
Duration : 2 h 8 min
Bit rate mode : Constant
Bit rate : 1 509 kb/s
Channel(s) : 6 channels
Channel positions : Front: L C R, Side: L R, LFE
Sampling rate : 48.0 kHz
Frame rate : 93.750 FPS (512 SPF)
Bit depth : 24 bits
Compression mode : Lossy
Stream size : 1.35 GiB (5%)
Language : English
Default : No
Forced : No

Text #1
ID : 7
Format : UTF-8
Codec ID : S_TEXT/UTF8
Codec ID/Info : UTF-8 Plain Text
Duration : 2 h 8 min
Bit rate : 0 b/s
Count of elements : 24
Stream size : 752 Bytes (0%)
Title : Forced
Language : Russian
Default : Yes
Forced : No

Text #2
ID : 8
Format : UTF-8
Codec ID : S_TEXT/UTF8
Codec ID/Info : UTF-8 Plain Text
Duration : 2 h 8 min
Bit rate : 78 b/s
Count of elements : 1253
Stream size : 73.6 KiB (0%)
Title : Full
Language : Russian
Default : No
Forced : No

Text #3
ID : 9
Format : UTF-8
Codec ID : S_TEXT/UTF8
Codec ID/Info : UTF-8 Plain Text
Duration : 2 h 7 min
Bit rate : 53 b/s
Count of elements : 1274
Stream size : 50.3 KiB (0%)
Title : Full
Language : English
Default : No
Forced : No

Menu
00:00:00.000 : en:Chapter 01
00:03:52.148 : en:Chapter 02
00:06:17.543 : en:Chapter 03
00:07:48.133 : en:Chapter 04
00:11:30.522 : en:Chapter 05
00:15:15.079 : en:Chapter 06
00:17:56.489 : en:Chapter 07
00:20:46.491 : en:Chapter 08
00:25:54.882 : en:Chapter 09
00:27:29.101 : en:Chapter 10
00:30:01.878 : en:Chapter 11
00:31:26.712 : en:Chapter 12
00:33:46.058 : en:Chapter 13
00:38:15.284 : en:Chapter 14
00:41:03.242 : en:Chapter 15
00:45:41.852 : en:Chapter 16
00:52:15.120 : en:Chapter 17
00:55:25.560 : en:Chapter 18
00:58:01.299 : en:Chapter 19
01:00:46.047 : en:Chapter 20
01:02:28.858 : en:Chapter 21
01:08:14.495 : en:Chapter 22
01:12:30.250 : en:Chapter 23
01:17:00.185 : en:Chapter 24
01:18:27.146 : en:Chapter 25
01:21:29.036 : en:Chapter 26
01:25:51.047 : en:Chapter 27
01:32:44.085 : en:Chapter 28
01:36:48.996 : en:Chapter 29
01:39:46.506 : en:Chapter 30
01:45:01.236 : en:Chapter 31
01:46:21.440 : en:Chapter 32
01:51:20.155 : en:Chapter 33
01:56:37.679 : en:Chapter 34
01:58:11.521 : en:Chapter 35
02:01:44.942 : en:Chapter 36
pb.wtf



Скачать Крепкий орешек 4.0 через торрент https://c.radikal.ru/c43/1812/48/a329d0054410.png Скачать фильм Крепкий орешек 4.0 через торрент бесплантно в хорошем качестве Описание: Мир снова под угрозой: террористы захватили контроль над глобальной компьютерной сетью. Повсюду воцаряется хаос, правительство и ... 8.7 10 6
Торрент: Зарегистрирован [2018-12-31 02:28] · скачан: 22 раз
Статус: √ проверено
Размер: 27.31 GB
Как cкачать? Как скачать Крепкий орешек 4.0 через торрент | qTorrent

28-11-2019 20:33  

Отключить всю рекламу на сайте

    Дорогой пользователь! Огромная просьба, поблагодарите релизера, оцените раздачу и оставьте свои комментарий, если Вы скачали Крепкий орешек 4.0 через торрент бесплатно! Внесите свою лепту в развитие PiratBit!
    Комментировать посты могут только пользователи прошедшие не сложную регистрацию
    Показать сообщения:    

    Крепкий орешек 4.0 через торрент
    Скачать бесплатно Крепкий орешек 4.0
    Крепкий орешек 4.0 скачать торрент
    Крепкий орешек 4.0 смотреть онлайн
    Cкачать фильм Крепкий орешек 4.0 бесплатно
    Крепкий орешек 4.0 скачать торрент в хорошем качестве
    Крепкий орешек 4.0 смотреть онлайн бесплатно в хорошем качестве


    Вы не можете начинать темы
    Вы не можете отвечать на сообщения
    Вы не можете редактировать свои сообщения
    Вы не можете удалять свои сообщения
    Вы не можете голосовать в опросах
    Вы не можете прикреплять файлы к сообщениям
    Вы можете скачивать файлы