Ссылка на приватное зеркало нашего сайта всего за 1$. Внимание количество ограничено!!!

2 сезон

iTunes

1 сезон

1

2 сезон

2 сезон

iTunes

1 сезон

RePack

30

Новинка

ВАЖНО

ИГРА 18+

pack

RePack

MK11
pack

Забери бонус

RePack

jed

!!Акция!!

Alien_Rage

RePack

fifa19

RePack

Assassins Creed: Odyssey

RePack

NEED FOR SPEED™ PAYBACK

4 сезон

9 сезон

Бесстыжие 9 сезон

Все сериалы

все сериалы на PB.wtf

RePack

FAR CRY 5
  

Крепкий орешек: Хороший день, чтобы умереть / A Good Day to Die Hard (Джон Мур) [2013, боевик, триллер, UHD WEBRip 2160p] DUB pb.wtf

Крепкий орешек: Хороший день, чтобы умереть через торрент pb.wtf

Размер: 21.22 GB | Добавлен: 1 год 10 мес. назад | Торрент скачан:27 раз
Скачать  

31-12-2018 02:37 Крепкий орешек: Хороший день, чтобы умереть Скачать торрент  

Крепкий орешек: Хороший день, чтобы умереть / A Good Day to Die Hard

Год выпуска: 2013
Страна: США
Жанр: боевик, триллер
Продолжительность: 01:37:30
Перевод: Дублированный [Лицензия]
Субтитры: русские, английские полные, английские хард сабы на русскую речь.
Режиссер: Джон Мур
В ролях:

Брюс Уиллис (John McClane), Джай Кортни (Jack McClane), Себастьян Кох (Komarov), Юлия Снигирь (Irina), Радивойе Буквич (Alik), Сергей Колесников (Chagarin), Мэри Элизабет Уинстэд (Lucy), Коул Хаузер (Collins), Амори Ноласко (Murphy), Роман Лукнар (Anton), Золи Ганкста (MRAP Driver), Петер Такачи (Prosecutor)
Описание:
Джон МакКлейн прибывает в Москву, чтобы вызволить из тюрьмы своего непредсказуемого сына, но холодная голова и железные мускулы вязнут в паутине российской действительности. Дело, в которое влип МакКлейн-младший, оказывается настолько «опасной трясиной», что отцу и сыну, чтобы выжить и в очередной раз спасти мир, приходится объединить свои усилия, забыв прежние, казалось бы, непреодолимые разногласия.
Рейтинг:

MPAA: R - Лицам до 17 лет обязательно присутствие взрослого
Качество: UHD WEBRip 2160p
Формат: MKV
Видео: HEVC HDR, 24.7 Мбит/с, 3840x2076, 10 bit
Аудио №1: Russian / DTS / 5.1 / 48 kHz / 768 kbps Дубляж, Blu-ray EUR
Аудио №2: English / DTS-HD MA / 7.1 / 48 kHz / ~5738 kbps
Навигация по главам: Есть
General
Unique ID : 177559383342131329223039006895287596590 (0x8594B17DFAEA0D1C4146F3AD8824762E)
Complete name : W:\Downloads\Releases\A.good.day.to.die.hard.2013.WEBRip.HEVC.HDR.2160p.mkv
Format : Matroska
Format version : Version 4 / Version 2
File size : 21.2 GiB
Duration : 1 h 37 min
Overall bit rate : 31.2 Mb/s
Encoded date : UTC 2018-12-28 13:01:11
Writing application : mkvmerge v29.0.0 ('Like It Or Not') 64-bit
Writing library : libebml v1.3.6 + libmatroska v1.4.9
Attachments : poster.jpg

Video
ID : 1
Format : HEVC
Format/Info : High Efficiency Video Coding
Format profile : Main 10@L5@Main
Codec ID : V_MPEGH/ISO/HEVC
Duration : 1 h 37 min
Bit rate : 24.7 Mb/s
Width : 3 840 pixels
Height : 2 076 pixels
Display aspect ratio : 1.85:1
Frame rate mode : Constant
Frame rate : 23.976 (24000/1001) FPS
Color space : YUV
Chroma subsampling : 4:2:0
Bit depth : 10 bits
Bits/(Pixel*Frame) : 0.129
Stream size : 16.8 GiB (79%)
Default : Yes
Forced : No
Color range : Limited
Color primaries : BT.2020
Transfer characteristics : PQ
Matrix coefficients : BT.2020 non-constant
Mastering display color pri : BT.2020
Mastering display luminance : min: 0.0050 cd/m2, max: 1000 cd/m2
Maximum Content Light Level : 675 cd/m2
Maximum Frame-Average Light : 276 cd/m2

Audio #1
ID : 2
Format : DTS
Format/Info : Digital Theater Systems
Codec ID : A_DTS
Duration : 1 h 37 min
Bit rate mode : Constant
Bit rate : 768 kb/s
Channel(s) : 6 channels
Channel positions : Front: L C R, Side: L R, LFE
Sampling rate : 48.0 kHz
Frame rate : 93.750 FPS (512 SPF)
Bit depth : 24 bits
Compression mode : Lossy
Stream size : 536 MiB (2%)
Title : DUB
Language : Russian
Default : Yes
Forced : No

Audio #2
ID : 3
Format : DTS
Format/Info : Digital Theater Systems
Format profile : MA / ES Matrix / Core
Codec ID : A_DTS
Duration : 1 h 37 min
Bit rate mode : Variable / Constant / Constant
Bit rate : 5 738 kb/s / 1 509 kb/s / 1 509 kb/s
Channel(s) : 8 channels / 7 channels / 6 channels
Channel positions : Front: L C R, Side: L R, Back: L R, LFE / Front: L C R, Side: L R, Back: C, LFE / Front: L C R, Side: L R, LFE
Sampling rate : 48.0 kHz
Frame rate : 93.750 FPS (512 SPF)
Bit depth : 24 bits
Compression mode : Lossless / Lossy / Lossy
Stream size : 3.91 GiB (18%)
Title : Original
Language : English
Default : No
Forced : No

Text #1
ID : 4
Format : UTF-8
Codec ID : S_TEXT/UTF8
Codec ID/Info : UTF-8 Plain Text
Duration : 1 h 29 min
Bit rate : 45 b/s
Count of elements : 768
Stream size : 30.0 KiB (0%)
Title : Full
Language : Russian
Default : Yes
Forced : No

Text #2
ID : 5
Format : UTF-8
Codec ID : S_TEXT/UTF8
Codec ID/Info : UTF-8 Plain Text
Duration : 1 h 34 min
Bit rate : 38 b/s
Count of elements : 1022
Stream size : 26.9 KiB (0%)
Title : Full
Language : English
Default : No
Forced : No

Menu
00:00:00.000 : :1
00:02:52.000 : :2
00:05:02.000 : :3
00:09:50.000 : :4
00:12:28.000 : :5
00:15:41.000 : :6
00:18:18.000 : :7
00:21:45.000 : :8
00:26:57.000 : :9
00:30:57.000 : :10
00:34:32.000 : :11
00:38:21.000 : :12
00:40:28.000 : :13
00:44:12.000 : :14
00:48:23.000 : :15
00:51:13.000 : :16
00:54:42.000 : :17
00:59:23.000 : :18
01:01:22.000 : :19
01:06:19.000 : :20
01:09:42.000 : :21
01:14:16.000 : :22
01:15:42.000 : :23
01:19:29.000 : :24
01:21:39.000 : :25
01:23:27.000 : :26
01:27:59.000 : :27
01:31:54.000 : :28
pb.wtf



Скачать Крепкий орешек: Хороший день, чтобы умереть через торрент https://c.radikal.ru/c11/1812/78/2b8e27e72fa4.png Скачать фильм Крепкий орешек: Хороший день, чтобы умереть через торрент бесплантно в хорошем качестве Описание: Джон МакКлейн прибывает в Москву, чтобы вызволить из тюрьмы своего непредсказуемого сына, но холодная голова и железные мускулы ... 10 10 2
Торрент: Зарегистрирован [2018-12-31 02:37] · скачан: 27 раз
Статус: √ проверено
Размер: 21.22 GB
Как cкачать? Как скачать Крепкий орешек: Хороший день, чтобы умереть через торрент | qTorrent

% Раздел Тема Автор DL S | L
Фильмы (Blu-ray, BD-Remux, HDDVD) [ 43.89 GB ] Крепкий орешек: Хороший день чтобы умереть / A Good Day to Die Hard [2013 Blu-ray CEE 1080p] DUB [2 в 1: Театральная и расширенная версии] sheker187 Скачать
1 | 0
Фильмы 2013 [DVDrip, WEB-DLRip, HDrip] [ 746 MB ] Крепкий орешек: Хороший день чтобы умереть / A Good Day to Die Hard [2013 HDRip] [Extended Cut] Dub dexter lex Скачать
1 | 0

28-11-2019 20:33  

Отключить всю рекламу на сайте

    Дорогой пользователь! Огромная просьба, поблагодарите релизера, оцените раздачу и оставьте свои комментарий, если Вы скачали Крепкий орешек: Хороший день, чтобы умереть через торрент бесплатно! Внесите свою лепту в развитие PiratBit!
    Комментировать посты могут только пользователи прошедшие не сложную регистрацию
    Показать сообщения:    

    Крепкий орешек: Хороший день, чтобы умереть через торрент
    Скачать бесплатно Крепкий орешек: Хороший день, чтобы умереть
    Крепкий орешек: Хороший день, чтобы умереть скачать торрент
    Крепкий орешек: Хороший день, чтобы умереть смотреть онлайн
    Cкачать фильм Крепкий орешек: Хороший день, чтобы умереть бесплатно
    Крепкий орешек: Хороший день, чтобы умереть скачать торрент в хорошем качестве
    Крепкий орешек: Хороший день, чтобы умереть смотреть онлайн бесплатно в хорошем качестве


    Вы не можете начинать темы
    Вы не можете отвечать на сообщения
    Вы не можете редактировать свои сообщения
    Вы не можете удалять свои сообщения
    Вы не можете голосовать в опросах
    Вы не можете прикреплять файлы к сообщениям
    Вы можете скачивать файлы