Ссылка на приватное зеркало всего за 1$. Внимание количество ограничено!!!

OK

1+1

iTunes

мы

OK

1

WEB-DLRip

Джокер

Пифагор

Ведьмак / The Witcher сериал

iTunes

ПШазам

ОК

Оно 2

iTunes

30
pack

Вам бонус

ВАЖНО

!!Акция!!

Alien_RageХит недели

RePack

Resident Evil 21

ИГРА 18+

pack

RePack

jed

RePack

fifa19

RePack

Assassins Creed: Odyssey

RePack

NEED FOR SPEED™ PAYBACK

4 сезон

9 сезон

Бесстыжие 9 сезон

Все сериалы

все сериалы на PB.wtf

RePack

FAR CRY 5
  

Не спать до Рождества / No Sleep Til Christmas (Фил Трэйл) [2018 г., Мелодрама, комедия, HDTVRip, Любительский (многоголосый)(Синема УС)] pb.wtf

Не спать до Рождества через торрент pb.wtf

Раздают: 1 [ 0 KB/s ]
Размер: 1.33 GB | Добавлен: 1 год назад | Торрент скачан:116 раз
Скачать  

31-12-2018 08:38 Не спать до Рождества Скачать торрент  

Не спать до Рождества / No Sleep Til Christmas
Год выпуска: 2018
Страна: США
Жанр: Мелодрама, комедия
Продолжительность: 01:24:17
Перевод: Любительский (многоголосый)(Синема УС)
Субтитры: Отсутствуют

Режиссер: Фил Трэйл

rating

В ролях: Одетт Эннэйбл, Дэйв Эннэйбл, Скотт Квальейру, Бриттани Бристоу, Чарльз Майкл Дэвис, Шерил Ли Ральф, Кевин Ханчард, Альфонсо МакОли, Джесс Салгейру, Кристина Юнг

Описание: Бармен Билли и бизнеследи Лиззи знакомятся при забавных обстоятельствах. Они совершенно разные, но одно общее у них всё же есть - бессоница. Они перепробовали всё, что можно было, но ничего не помогает. Они не знали одного. Для решения этой проблемы всего то нужно было найти идеального партнёра для сна.

Доп. информация: Присутствуют вставки текстовой рекламы

Качество: HDTVRip
Формат: AVI
Видео кодек: XviD
Аудио кодек: MP3
Видео: XviD, 720x400, ~1869 Kbps
Аудио#1: AC-3, 2 ch, 384 Kbps
скриншот   скриншот   скриншот   скриншот  

Общее
Полное имя : E:\NNM\Не спать до Рождества\No Sleep Til Christmas 2018 HDTVRip.avi
Формат : AVI
Формат/Информация : Audio Video Interleave
Профиль формата : OpenDML
Размер файла : 1,33 Гбайт
Продолжительность : 1 ч. 24 м.
Общий поток : 2265 Кбит/сек

Видео
Идентификатор : 0
Формат : MPEG-4 Visual
Профиль формата : Advanced Simple@L5
Настройки формата : BVOP2 / Custom Matrix
Параметр BVOP формата : 2
Параметр QPel формата : Нет
Параметр GMC формата : Без точки перехода
Параметр матрицы формата : Выборочная
Идентификатор кодека : XVID
Идентификатор кодека/Подсказка : XviD
Продолжительность : 1 ч. 24 м.
Битрейт : 1869 Кбит/сек
Ширина : 720 пикселей
Высота : 400 пикселей
Соотношение сторон : 16:9
Частота кадров : 23,976 (24000/1001) кадра/сек
Цветовое пространство : YUV
Субдискретизация насыщенности : 4:2:0
Битовая глубина : 8 бит
Тип развёртки : Прогрессивная
Метод сжатия : С потерями
Бит/(Пиксели*Кадры) : 0.271
Размер потока : 1,10 Гбайт (82%)
Библиотека кодирования : XviD 1.2.1 (UTC 2008-12-04)

Аудио
Идентификатор : 1
Формат : AC-3
Формат/Информация : Audio Coding 3
Идентификатор кодека : 2000
Продолжительность : 1 ч. 24 м.
Вид битрейта : Постоянный
Битрейт : 384 Кбит/сек
Каналы : 2 канала
Расположение каналов : Front: L R
Частота : 48,0 КГц
Частота кадров : 31,250 кадров/сек (1536 SPF)
Битовая глубина : 16 бит
Метод сжатия : С потерями
Размер потока : 232 Мбайт (17%)
Выравнивание : Соединение по промежуткам
Продолжительность промежутка : 32 мс. (0,77 видеокадр)
ServiceKind/String : Complete Main

pb.wtf



Скачать Не спать до Рождества через торрент http://pic1.kartinco.top/images/12/ady7i.jpg Скачать фильм Не спать до Рождества через торрент бесплантно в хорошем качестве Описание: Бармен Билли и бизнеследи Лиззи знакомятся при забавных обстоятельствах. Они совершенно разные, но одно общее у них всё же есть - ... 3.5 10 2
Торрент: Зарегистрирован [2018-12-31 08:38] · скачан: 116 раз
Статус: T временная
Размер: 1.33 GB
Как cкачать? Как скачать Не спать до Рождества через торрент | qTorrent

28-11-2019 20:33  

Отключить всю рекламу на сайте

    Дорогой пользователь! Огромная просьба, поблагодарите релизера, оцените раздачу и оставьте свои комментарий, если Вы скачали Не спать до Рождества через торрент бесплатно! Внесите свою лепту в развитие PiratBit!
    Комментировать посты могут только пользователи прошедшие не сложную регистрацию
    Показать сообщения:    

    Не спать до Рождества через торрент
    Скачать бесплатно Не спать до Рождества
    Не спать до Рождества скачать торрент
    Не спать до Рождества смотреть онлайн
    Cкачать фильм Не спать до Рождества бесплатно
    Не спать до Рождества скачать торрент в хорошем качестве
    Не спать до Рождества смотреть онлайн бесплатно в хорошем качестве


    Вы не можете начинать темы
    Вы не можете отвечать на сообщения
    Вы не можете редактировать свои сообщения
    Вы не можете удалять свои сообщения
    Вы не можете голосовать в опросах
    Вы не можете прикреплять файлы к сообщениям
    Вы можете скачивать файлы