Ссылка на приватное зеркало всего за 1$. Внимание количество ограничено!!!

OK

1+1

iTunes

мы

OK

1

WEB-DLRip

Джокер

Пифагор

Ведьмак / The Witcher сериал

iTunes

ПШазам

ОК

Оно 2

iTunes

30
pack

Вам бонус

ВАЖНО

!!Акция!!

Alien_RageХит недели

RePack

Resident Evil 21

ИГРА 18+

pack

RePack

jed

RePack

fifa19

RePack

Assassins Creed: Odyssey

RePack

NEED FOR SPEED™ PAYBACK

4 сезон

9 сезон

Бесстыжие 9 сезон

Все сериалы

все сериалы на PB.wtf

RePack

FAR CRY 5
  

Сапожки Санты / Santa's Boots (Шон Толлесон) [2018, Мелодрама, HDTVRip 720p] MVO ["Синема УС"] pb.wtf

Сапожки Санты через торрент pb.wtf

Размер: 3.22 GB | Добавлен: 1 год назад | Торрент скачан:17 раз
Скачать  

31-12-2018 09:44 Сапожки Санты Скачать торрент  

Сапожки Санты / Santa's BootsГод выпуска: 2018
Страна: США
Жанр: Мелодрама
Продолжительность: 01:26:41
Перевод: Любительский (многоголосый) | "Синема УС"
Субтитры: отсутствуют

Режиссер: Шон Толлесон

rating

В ролях:

Кармен Агирре, Тим Биссет, Андреа Брукс, Гари Чок, Кристиан Конвери, Роурк Критчлоу, Найа Камминс, Мэтт Хэмилтон, Меган Хилти, Патриция Исаак

Описание:

Холли возвращается домой на Рождество и решает поработать эльфом Санты в магазине своей семьи, благодаря чему она знакомится с молодым Сантой Ником и влюбляется в него. Когда Ник неожиданно исчезает, Холли в стиле истории Золушки ищет его с помощью единственной зацепки - черных сапог Ника. И в итоге, на Рождественском Балу они находят друг друга.

Качество: HDTVRip 720p
Формат: MKV

Видео: h.264,4 937 kb/s, 1280x720
Аудио#1: Русский, (AC3, 2 ch, 384 Кбит/с)
скриншот  скриншот  скриншот  

Общее
Уникальный идентификатор : 188797667023559277709792219547901427389 (0x8E091BA8306A510AB207ADB5E2DCFEBD)
Полное имя : D:\Santas.Boots.2018.P.HDTV.72Op_KOSHARA.mkv
Формат : Matroska
Версия формата : Version 2
Размер файла : 3,22 Гбайт
Продолжительность : 1 ч. 26 м.
Режим общего битрейта : Переменный
Общий поток : 5323 Кбит/сек
Дата кодирования : UTC 2018-12-29 17:17:27
Программа кодирования : mkvmerge v8.3.0 ('Over the Horizon') 64bit
Библиотека кодирования : libebml v1.3.1 + libmatroska v1.4.2

Видео
Идентификатор : 1
Формат : AVC
Формат/Информация : Advanced Video Codec
Профиль формата : High@L4.1
Параметр CABAC формата : Да
Параметр RefFrames формата : 4 кадра
Идентификатор кодека : V_MPEG4/ISO/AVC
Продолжительность : 1 ч. 26 м.
Вид битрейта : Переменный
Битрейт : 4937 Кбит/сек
Максимальный битрейт : 5500 Кбит/сек
Ширина : 1280 пикселей
Высота : 720 пикселей
Соотношение сторон : 16:9
Режим частоты кадров : Постоянный
Частота кадров : 23,976 (24000/1001) кадра/сек
Стандарт вещания : Component
Цветовое пространство : YUV
Субдискретизация насыщенности : 4:2:0
Битовая глубина : 8 бит
Тип развёртки : Прогрессивная
Бит/(Пиксели*Кадры) : 0.219
Размер потока : 2,93 Гбайт (91%)
Default : Да
Forced : Нет
Цветовой диапазон : Limited
Основные цвета : BT.709
Характеристики трансфера : BT.709
Коэффициенты матрицы : BT.709

Аудио
Идентификатор : 2
Формат : AC-3
Формат/Информация : Audio Coding 3
Расширение режима : CM (complete main)
Параметр Endianness формата : Big
Идентификатор кодека : A_AC3
Продолжительность : 1 ч. 26 м.
Вид битрейта : Постоянный
Битрейт : 384 Кбит/сек
Каналы : 2 канала
Расположение каналов : Front: L R
Частота : 48,0 КГц
Частота кадров : 31,250 кадров/сек (1536 spf)
Метод сжатия : С потерями
Размер потока : 238 Мбайт (7%)
Default : Да
Forced : Нет

pb.wtf



Скачать Сапожки Санты через торрент https://c.radikal.ru/c04/1812/c1/90493b58b678.jpg Скачать фильм Сапожки Санты через торрент бесплантно в хорошем качестве Описание: Холли возвращается домой на Рождество и решает поработать эльфом Санты в магазине своей семьи, благодаря чему она знакомится с ... 9 10 3
Торрент: Зарегистрирован [2018-12-31 09:44] · скачан: 17 раз
Статус: T временная
Размер: 3.22 GB
Как cкачать? Как скачать Сапожки Санты через торрент | qTorrent

28-11-2019 20:33  

Отключить всю рекламу на сайте

    Дорогой пользователь! Огромная просьба, поблагодарите релизера, оцените раздачу и оставьте свои комментарий, если Вы скачали Сапожки Санты через торрент бесплатно! Внесите свою лепту в развитие PiratBit!
    Комментировать посты могут только пользователи прошедшие не сложную регистрацию
    Показать сообщения:    

    Сапожки Санты через торрент
    Скачать бесплатно Сапожки Санты
    Сапожки Санты скачать торрент
    Сапожки Санты смотреть онлайн
    Cкачать фильм Сапожки Санты бесплатно
    Сапожки Санты скачать торрент в хорошем качестве
    Сапожки Санты смотреть онлайн бесплатно в хорошем качестве


    Вы не можете начинать темы
    Вы не можете отвечать на сообщения
    Вы не можете редактировать свои сообщения
    Вы не можете удалять свои сообщения
    Вы не можете голосовать в опросах
    Вы не можете прикреплять файлы к сообщениям
    Вы можете скачивать файлы