Ссылка на приватное зеркало нашего сайта всего за 1$. Внимание количество ограничено!!!

2 сезон

iTunes

1 сезон

1

2 сезон

2 сезон

iTunes

1 сезон

RePack

30

Новинка

ВАЖНО

ИГРА 18+

pack

RePack

MK11
pack

Забери бонус

RePack

jed

!!Акция!!

Alien_Rage

RePack

fifa19

RePack

Assassins Creed: Odyssey

RePack

NEED FOR SPEED™ PAYBACK

4 сезон

9 сезон

Бесстыжие 9 сезон

Все сериалы

все сериалы на PB.wtf

RePack

FAR CRY 5
  

МакМафия / McMafia / Сезон: 1 / Серии: 1-8 из 8 (Джеймс Уоткинс) [2018, Триллер, драма, криминал, BDRip] [MVO] (TVShows) pb.wtf

МакМафия через торрент pb.wtf

Размер: 7.57 GB | Добавлен: 1 год 11 мес. назад | Торрент скачан:61 раз
Скачать  

31-12-2018 11:36 МакМафия Скачать торрент  

МакМафия | McMafia
Год выпуска: 2018
Страна: Великобритания, США
Жанр: триллер, драма, криминал
Продолжительность: ~ 00:55:00

Перевод: Профессиональный (многоголосый закадровый) TVShows

Режиссёр: Джеймс Уоткинс

В ролях: Джеймс Нортон, Мераб Нинидзе, Кирилл Пирогов, Джульет Райлэнс, Ошри Коэн, Фэй Марсей, Алексей Серебряков, Мария Шукшина, Дэвид Стрэтэйрн и др.
Описание: Алекс Гудман, сын русских эмигрантов, пытается выйти из тени своей бывшей мафиозной семейки и создать личный бизнес и семью с подругой Ребеккой. Но прошлое семьи даёт о себе знать, и Алекс вынужден внедриться в преступный мир, чтобы защитить тех, кого любит.
rating

Качество: BDRip
Формат: AVI
Видео: XVID, 720x400, 25.000 fps, ~2000 kbps avg, ~0.278 bit/pixel
Аудио Rus: AC3, 48.0 KHz, 6 channels, 384 kbps
Субтитры: отсутствуют
General
Complete name : G:\МакМафия (Сезон 1) TVShows\McMafia.S01E01.BDRip.RGzsRutracker.Celta88.avi
Format : AVI
Format/Info : Audio Video Interleave
File size : 961 MiB
Duration : 56 min 8 s
Overall bit rate : 2 393 kb/s
Writing application : VirtualDubMod 1.5.10.2 (build 2540/release)
Writing library : VirtualDubMod build 2540/release

Video
ID : 0
Format : MPEG-4 Visual
Format profile : Advanced Simple@L5
Format settings, BVOP : 1
Format settings, QPel : No
Format settings, GMC : No warppoints
Format settings, Matrix : Default (MPEG)
Codec ID : XVID
Codec ID/Hint : XviD
Duration : 56 min 8 s
Bit rate : 1 999 kb/s
Width : 720 pixels
Height : 400 pixels
Display aspect ratio : 16:9
Frame rate : 25.000 FPS
Color space : YUV
Chroma subsampling : 4:2:0
Bit depth : 8 bits
Scan type : Progressive
Compression mode : Lossy
Bits/(Pixel*Frame) : 0.278
Stream size : 803 MiB (84%)
Writing library : XviD 1.2.0.dev47 (UTC 2006-11-01)

Audio
ID : 1
Format : AC-3
Format/Info : Audio Coding 3
Mode extension : CM (complete main)
Format settings, Endianness : Big
Codec ID : 2000
Duration : 56 min 8 s
Bit rate mode : Constant
Bit rate : 384 kb/s
Channel(s) : 6 channels
Channel positions : Front: L C R, Side: L R, LFE
Sampling rate : 48.0 kHz
Frame rate : 31.250 FPS (1536 spf)
Bit depth : 16 bits
Compression mode : Lossy
Stream size : 154 MiB (16%)
Alignment : Split accross interleaves
Interleave, duration : 40 ms (1.00 video frame)
Interleave, preload duratio : 500 ms
скриншот  скриншот  скриншот  
pb.wtf



Скачать МакМафия через торрент https://i107.fastpic.ru/big/2018/1231/93/09dc0277033f62e7f347e07b87715093.jpg Скачать фильм МакМафия через торрент бесплантно в хорошем качестве Описание: Алекс Гудман, сын русских эмигрантов, пытается выйти из тени своей бывшей мафиозной семейки и создать личный бизнес и семью с ... 10 10 1
Торрент: Зарегистрирован [2018-12-31 11:36] · скачан: 61 раз
Статус: √ проверено
Размер: 7.57 GB
Как cкачать? Как скачать МакМафия через торрент | qTorrent

% Раздел Тема Автор DL S | L
Зарубежные сериалы [ 24.11 GB ] МакМафия / McMafia / Сезон: 1 / Серии: 1-8 из 8 [2018 BDRip 720p] MVO [Good People] bober100 Скачать
1 | 0
Зарубежные сериалы [ 5.47 GB ] МакМафия / McMafia / Сезон: 1 / Серии: 1-8 из 8 [2018 HDRip] MVO [Good People] bober100 Скачать
1 | 0
Зарубежные сериалы [ 13.75 GB ] МакМафия / McMafia / Сезон 1 / Серии 1-8 из 8 [2017 WEB-DLRip 720р] [MVO] killermax2013 Скачать
1 | 0
Зарубежные сериалы [ 15.1 GB ] МакМафия / McMafia / Сезон: 1 / Серии: 1-8 из 8 [2017 WEBRip 720p] MVO [Jaskier] bober100 Скачать
1 | 0
Зарубежные сериалы [ 25.41 GB ] МакМафия / McMafia / Сезон 1 / Серии 1-8 из 8 [2017 WEBRip 1080p] MVO [BaibaKo] bober100 Скачать
1 | 0
Зарубежные сериалы [ 23.64 GB ] МакМафия / McMafia / Сезон: 1 / Серии: 1-8 из 8 [2017 WEBRip 1080p] MVO [Jaskier] bober100 Скачать
1 | 0
Зарубежные сериалы [ 5.66 GB ] МакМафия / McMafia / Сезон: 1 / Серии: 1-8 из 8 [2017 WEBRip] MVO [Jaskier] bober100 Скачать
1 | 0

28-11-2019 20:33  

Отключить всю рекламу на сайте

    Дорогой пользователь! Огромная просьба, поблагодарите релизера, оцените раздачу и оставьте свои комментарий, если Вы скачали МакМафия через торрент бесплатно! Внесите свою лепту в развитие PiratBit!
    Комментировать посты могут только пользователи прошедшие не сложную регистрацию
    Показать сообщения:    

    МакМафия через торрент
    Скачать бесплатно МакМафия
    МакМафия скачать торрент
    МакМафия смотреть онлайн
    Cкачать фильм МакМафия бесплатно
    МакМафия скачать торрент в хорошем качестве
    МакМафия смотреть онлайн бесплатно в хорошем качестве


    Вы не можете начинать темы
    Вы не можете отвечать на сообщения
    Вы не можете редактировать свои сообщения
    Вы не можете удалять свои сообщения
    Вы не можете голосовать в опросах
    Вы не можете прикреплять файлы к сообщениям
    Вы можете скачивать файлы