Ссылка на приватное зеркало нашего сайта всего за 1$. Внимание количество ограничено!!!

2 сезон

iTunes

1 сезон

1

2 сезон

2 сезон

iTunes

1 сезон

RePack

30

Новинка

ВАЖНО

ИГРА 18+

pack

RePack

MK11
pack

Забери бонус

RePack

jed

!!Акция!!

Alien_Rage

RePack

fifa19

RePack

Assassins Creed: Odyssey

RePack

NEED FOR SPEED™ PAYBACK

4 сезон

9 сезон

Бесстыжие 9 сезон

Все сериалы

все сериалы на PB.wtf

RePack

FAR CRY 5
  

Титаны / Titans / Сезон: 1 / Серии: 1-11 из 11 (Брэд Андерсон, Грант Харви, Джон Фоусет) [2018, фантастика, фэнтези, боевик, приключения, WEB-DLRip] [MVO] (TVShows) pb.wtf

Титаны через торрент pb.wtf

Размер: 7.69 GB | Добавлен: 1 год 10 мес. назад | Торрент скачан:80 раз
Скачать  

31-12-2018 14:28 Титаны Скачать торрент  

Титаны | Titans
Год выпуска: 2018
Страна: США
Жанр: фантастика, фэнтези, боевик, приключения
Продолжительность: 00:50:00

Перевод: Профессиональный (многоголосый закадровый) TVShows

Режиссёр: Брэд Андерсон, Грант Харви, Джон Фоусет

В ролях: Брентон Туэйтс, Тиган Крофт, Анна Диоп, Линдси Горт, Минка Келли, Райан Поттер, Алан Ричсон, Каррен Уолтерс, Шеймус Девер, Бруно Бичир и др.
Описание: В надежде остановить своего отца — древнего демона Тригона — обладательница невероятных способностей девушка Рэйвен обращается за помощью к Робину. Бывший напарник Бэтмена теперь сам вершит правосудие на улицах Готэма, но, чтобы остановить зло, Рэйвен и Робину понадобится подмога.

rating скриншот  

Качество: WEB-DLRip
Формат: AVI
Видео: XVID, 704x352, 23.976 fps, ~2000 kbps avg, ~0.3 bit/pixel
Аудио Rus: AC3, 48.0 KHz, 2 channels, 192 kbps
Субтитры: отсутствуют
General
Format : AVI
Format/Info : Audio Video Interleave
File size : 700 MiB
Duration : 44 min 44 s
Overall bit rate : 2 186 kb/s
Writing application : VirtualDubMod 1.5.10.2 (build 2540/release)
Writing library : VirtualDubMod build 2540/release

Video
ID : 0
Format : MPEG-4 Visual
Format profile : Advanced Simple@L5
Format settings, BVOP : 1
Format settings, QPel : No
Format settings, GMC : No warppoints
Format settings, Matrix : Default (H.263)
Codec ID : XVID
Codec ID/Hint : XviD
Duration : 44 min 44 s
Bit rate : 1 988 kb/s
Width : 704 pixels
Height : 352 pixels
Display aspect ratio : 2.000
Frame rate : 23.976 (24000/1001) FPS
Color space : YUV
Chroma subsampling : 4:2:0
Bit depth : 8 bits
Scan type : Progressive
Compression mode : Lossy
Bits/(Pixel*Frame) : 0.335
Stream size : 636 MiB (91%)
Writing library : XviD 67

Audio
ID : 1
Format : AC-3
Format/Info : Audio Coding 3
Mode extension : CM (complete main)
Format settings, Endianness : Big
Codec ID : 2000
Duration : 44 min 44 s
Source duration : 44 min 44 s
Bit rate mode : Constant
Bit rate : 192 kb/s
Channel(s) : 2 channels
Channel positions : Front: L R
Sampling rate : 48.0 kHz
Frame rate : 31.250 FPS (1536 spf)
Bit depth : 16 bits
Compression mode : Lossy
Stream size : 61.5 MiB (9%)
Alignment : Aligned on interleaves
Interleave, duration : 160 ms (3.84 video frames)
Interleave, preload duratio : 640 ms
скриншот  скриншот  скриншот  
pb.wtf



Скачать Титаны через торрент http://i77.fastpic.ru/big/2018/1012/07/e30cca3f916da8200723d91183391a07.png Скачать фильм Титаны через торрент бесплантно в хорошем качестве Описание: В надежде остановить своего отца — древнего демона Тригона — обладательница невероятных способностей девушка Рэйвен обращается ... 10 10 2
Торрент: Зарегистрирован [2018-12-31 14:28] · скачан: 80 раз
Статус: √ проверено
Размер: 7.69 GB
Как cкачать? Как скачать Титаны через торрент | qTorrent

% Раздел Тема Автор DL S | L
Зарубежные сериалы [ 18.63 GB ] Титаны / Titans / Сезон: 1 / Серии: 1-11 из 11 [2018 WEBRip 1080p] MVO [NewStudio] bober100 Скачать
1 | 0
Зарубежные сериалы [ 83.99 GB ] Титаны / Titans / Сезон: 1 / Серии: 1-11 из 11 [2018 BD Remux 1080p] MVO [LostFilm] bober100 Скачать
1 | 0
Зарубежные сериалы [ 11.65 GB ] Титаны / Titans / Сезон: 1 / Серии: 1-11 из 11 [2018 WEB-DL 720p] [MVO] killermax2013 Скачать
1 | 0
Зарубежные сериалы [ 16.42 GB ] Титаны / Titans / Сезон: 1 / Серии: 1-11 из 11 [2018 WEB-DL 1080p] [MVO] killermax2013 Скачать
1 | 0
Зарубежные сериалы [ 18.63 GB ] Титаны / Titans / Сезон: 1 / Серии: 1-11 из 11 [2018 WEB-DL 1080p] [MVO] killermax2013 Скачать
1 | 0
Зарубежные сериалы [ 26.75 GB ] Титаны / Titans / Сезон: 1 / Серии: 1-11 из 11 [2018 WEBRip 1080p] MVO [Lostfilm] bober100 Скачать
1 | 0
Зарубежные сериалы [ 4.15 GB ] Титаны / Titans / Сезон: 1 / Серии: 1-11 из 11 [2018 WEBRip] MVO [Lostfilm] bober100 Скачать
1 | 0

28-11-2019 20:33  

Отключить всю рекламу на сайте

    Дорогой пользователь! Огромная просьба, поблагодарите релизера, оцените раздачу и оставьте свои комментарий, если Вы скачали Титаны через торрент бесплатно! Внесите свою лепту в развитие PiratBit!
    Комментировать посты могут только пользователи прошедшие не сложную регистрацию
    Показать сообщения:    

    Титаны через торрент
    Скачать бесплатно Титаны
    Титаны скачать торрент
    Титаны смотреть онлайн
    Cкачать фильм Титаны бесплатно
    Титаны скачать торрент в хорошем качестве
    Титаны смотреть онлайн бесплатно в хорошем качестве


    Вы не можете начинать темы
    Вы не можете отвечать на сообщения
    Вы не можете редактировать свои сообщения
    Вы не можете удалять свои сообщения
    Вы не можете голосовать в опросах
    Вы не можете прикреплять файлы к сообщениям
    Вы можете скачивать файлы