новый адрес
Ссылка на приватное зеркало всего за 1$. Внимание количество ограничено!!!

iTunes

1+1

iTunes

мы

iTunes

1

iTunes

Чернобыль

iTunes

Ральф против интернета

Лицензия

ПШазам

Лицензия

Оно 2

Лицензия

30
pack

Вам бонус

ВАЖНО

!!Акция!!

Alien_RageХит недели

RePack

Resident Evil 21

ИГРА 18+

pack

RePack

jed

!!Акция!!

Alien_Rage

RePack

fifa19

RePack

Assassins Creed: Odyssey

RePack

NEED FOR SPEED™ PAYBACK

3 сезон

9 сезон

Бесстыжие 9 сезон

Все сериалы

все сериалы на PB.wtf

RePack

FAR CRY 5
Ребята, катастрофически не хватает 1900р. для оплаты серверов за Октябрь (всвязи с блокировками трафик упал в 3 раза), 1-2р., выручайте.
  

Карнавальная ночь (Эльдар Рязанов) [1956, СССР, мюзикл, мелодрама, комедия, BDRip-AVC] - ExKinoRay pb.wtf

Карнавальная ночь через торрент pb.wtf

Размер: 1.37 GB | Добавлен: 10 мес. назад | Торрент скачан:33 раза
Скачать  

31-12-2018 15:09 Карнавальная ночь Скачать торрент  

Информация о фильме
Название: Карнавальная ночь
Оригинальное название: Карнавальная ночь
Год выхода: 1956
Жанр: мюзикл, мелодрама, комедия
Режиссер: Эльдар Рязанов
В ролях: Игорь Ильинский, Людмила Гурченко, Юрий Белов, Георгий Куликов, Сергей Филиппов, Ольга Власова, Андрей Тутышкин, Тамара Носова, Геннадий Юдин, Владимир Зельдин

Описание:
Веселая победа над теперь уже вовсе не страшным дураком бюрократом милого коллектива во главе со стройной девушкой. Из картины Рязанова так и рвется наружу радость освобождения.



Выпущено: СССР
Студия: Мосфильм
Продолжительность: 01:15:31
Перевод: Не требуется
Субтитры: Русские, английские

Формат: MKV
Качество: BDRip-AVC
Видео: MPEG-4 AVC, 720x524 (1.374:1), 23.976 fps, 2142 Kbps, 0.237 bit/pixel
Звук:
Аудио : 48 kHz, AC3, 5.1, 448 Kbps | RUS |
General
Unique ID : 206132387004246149774984304002594547773 (0x9B13A7568546176A96BF01103B1CA83D)
Complete name : D:Карнавальная.ночь.1956.Remaster.BDRip.AVC.ExKinoRay.mkv
Format : Matroska
Format version : Version 2
File size : 1.37 GiB
Duration : 1 h 15 min
Overall bit rate : 2 593 kb/s
Movie name : Карнавальная ночь 1956 from ExKinoRay
Encoded date : UTC 2018-12-29 02:05:13
Writing application : mkvmerge v5.6.0 ('Kenya Kane') built on May 27 2012 16:44:04
Writing library : libebml v1.2.3 + libmatroska v1.3.0

Video
ID : 1
Format : AVC
Format/Info : Advanced Video Codec
Format profile : High@L4.1
Format settings, CABAC : Yes
Format settings, ReFrames : 11 frames
Codec ID : V_MPEG4/ISO/AVC
Duration : 1 h 15 min
Bit rate : 2 142 kb/s
Width : 720 pixels
Height : 524 pixels
Display aspect ratio : 1.374
Frame rate mode : Constant
Frame rate : 23.976 (24000/1001) FPS
Color space : YUV
Chroma subsampling : 4:2:0
Bit depth : 8 bits
Scan type : Progressive
Bits/(Pixel*Frame) : 0.237
Stream size : 1.10 GiB (81%)
Title : Enigma
Writing library : x264 core 152 r2851 ba24899
Encoding settings : cabac=1 / ref=11 / deblock=1:-2:-2 / analyse=0x3:0x113 / me=umh / subme=10 / psy=1 / psy_rd=1.05:0.05 / mixed_ref=1 / me_range=32 / chroma_me=1 / trellis=2 / 8x8dct=1 / cqm=0 / deadzone=21,11 / fast_pskip=0 / chroma_qp_offset=-3 / threads=12 / lookahead_threads=2 / sliced_threads=0 / nr=0 / decimate=0 / interlaced=0 / bluray_compat=0 / constrained_intra=0 / bframes=9 / b_pyramid=2 / b_adapt=2 / b_bias=0 / direct=3 / weightb=1 / open_gop=0 / weightp=2 / keyint=240 / keyint_min=23 / scenecut=40 / intra_refresh=0 / rc=2pass / mbtree=0 / bitrate=2142 / ratetol=1.0 / qcomp=0.60 / qpmin=0 / qpmax=51 / qpstep=4 / cplxblur=20.0 / qblur=0.5 / ip_ratio=1.40 / pb_ratio=1.30 / aq=1:1.00
Default : Yes
Forced : No
Color range : Limited
Color primaries : BT.709
Transfer characteristics : BT.709
Matrix coefficients : BT.709

Audio
ID : 2
Format : AC-3
Format/Info : Audio Coding 3
Mode extension : CM (complete main)
Format settings, Endianness : Big
Codec ID : A_AC3
Duration : 1 h 15 min
Bit rate mode : Constant
Bit rate : 448 kb/s
Channel(s) : 6 channels
Channel positions : Front: L C R, Side: L R, LFE
Sampling rate : 48.0 kHz
Frame rate : 31.250 FPS (1536 spf)
Compression mode : Lossy
Stream size : 242 MiB (17%)
Language : Russian
Default : Yes
Forced : No

Text #1
ID : 3
Format : UTF-8
Codec ID : S_TEXT/UTF8
Codec ID/Info : UTF-8 Plain Text
Language : Russian
Default : No
Forced : No

Text #2
ID : 4
Format : UTF-8
Codec ID : S_TEXT/UTF8
Codec ID/Info : UTF-8 Plain Text
Language : English
Default : No
Forced : No

Menu
00:00:00.000 : en:Chapter 1
00:06:20.380 : en:Chapter 2
00:15:02.109 : en:Chapter 3
00:22:14.624 : en:Chapter 4
00:29:50.371 : en:Chapter 5
00:33:37.682 : en:Chapter 6
00:40:10.408 : en:Chapter 7
00:47:34.852 : en:Chapter 8
00:54:18.171 : en:Chapter 9
01:00:56.611 : en:Chapter 10
01:07:08.274 : en:Chapter 11
01:11:04.760 : en:Chapter 12
Релиз от:

Автор релиза: pb.wtf



Скачать Карнавальная ночь через торрент http://d.radikal.ru/d15/1812/fb/402fccafd2e2.jpg Скачать фильм Карнавальная ночь через торрент бесплантно в хорошем качестве Описание:Веселая победа над теперь уже вовсе не страшным дураком бюрократом милого коллектива во главе со стройной девушкой. Из картины ... 10 10 1
Info! Золотая раздача, скачанное не засчитывается.
Торрент: Зарегистрирован [2018-12-31 15:09] · скачан: 33 раз
Статус: √ проверено
Размер: 1.37 GB
Как cкачать? Как скачать Карнавальная ночь через торрент | qTorrent


>> Переходим по ссылке <<
Автоматически подгузится скрипт который настроит ваш браузер на выигрыш!!
После настройки браузера вероятность выигрыша увеличется в 4.1-4,6 раза.
В течение 6 секунд вам откроется настроенный интерфейс казино, с повышенной вероятностью выигрыша.






Отзывы и комментарии о схеме читаем и пишем здесь: ---> Отзывы и комментарии о схеме

Новые благодарочки в телеграм довольных пользователей:
скриншот   скриншот   скриншот   скриншот   скриншот

31-12-2018 15:12 Карнавальная ночь Скачать торрент  

Пускай этот Новый 2019 год станет для вас свинкой-копилкой, в которую вы будете складывать свои успехи и победы, богатство и достаток, счастье и радости, приятные встречи и интереснейшие приключения. Пускай этот год будет настолько необычным, волшебным и запоминающимся, что даже спустя время вы могли бы вспомнить и поделиться своими положительными эмоциями. Желаю самого лучшего, доброго и светлого, огромных благ и искренней любви. С Новым годом!pb.wtf



    Дорогой пользователь! Огромная просьба, поблагодарите релизера, оцените раздачу и оставьте свои комментарий, если Вы скачали Карнавальная ночь через торрент бесплатно! Внесите свою лепту в развитие PiratBit!
    Комментировать посты могут только пользователи прошедшие не сложную регистрацию
    Показать сообщения:    

    Карнавальная ночь через торрент
    Скачать бесплатно Карнавальная ночь
    Карнавальная ночь скачать торрент
    Карнавальная ночь смотреть онлайн
    Cкачать фильм Карнавальная ночь бесплатно
    Карнавальная ночь скачать торрент в хорошем качестве
    Карнавальная ночь смотреть онлайн бесплатно в хорошем качестве


    Вы не можете начинать темы
    Вы не можете отвечать на сообщения
    Вы не можете редактировать свои сообщения
    Вы не можете удалять свои сообщения
    Вы не можете голосовать в опросах
    Вы не можете прикреплять файлы к сообщениям
    Вы можете скачивать файлы