новый адрес пиратбит piratbit
Мега распродажа FORZA HORIZON 4 ULTIMATE+ВСЕ DLC+ОНЛАЙН всего за 499р. 349 руб. (супер цена). Внимание количество ограничено!!!

iTunes

1+1

iTunes

мы

iTunes

1

iTunes

Чернобыль

iTunes

Ральф против интернета

Лицензия

ПШазам

Лицензия

Игра престолов

Лицензия

30
pack

ВАЖНО

!!Акция!!

Alien_RageХит недели

RePack

Resident Evil 21

ИГРА 18+

pack

RePack

Metro:Exodus

!!Акция!!

Alien_Rage

RePack

fifa19

RePack

Assassins Creed: Odyssey

RePack

NEED FOR SPEED™ PAYBACK

3 сезон

9 сезон

Бесстыжие 9 сезон

Все сериалы

все сериалы на PB.wtf

RePack

FAR CRY 5
Ребята, катастрофически не хватает 1900р. для оплаты серверов за Октябрь (всвязи с блокировками трафик упал в 3 раза), 1-2р., выручайте.
  

Клуб любителей книг и пирогов из картофельных очистков / The Guernsey Literary and Potato Peel Pie Society (Майк Ньюэлл / Mike Newell) [2018, драма, мелодрама, история, BDRemux 1080p] [MVO] (Jaskier) pb.wtf

Клуб любителей книг и пирогов из картофельных очистков через торрент pb.wtf

Размер: 29.22 GB | Добавлен: 10 мес. назад | Торрент скачан:12 раз
Скачать  

31-12-2018 15:15 Клуб любителей книг и пирогов из картофельных очистков Скачать торрент  

Клуб любителей книг и пирогов из картофельных очистков / The Guernsey Literary and Potato Peel Pie Society

Страна: США
Жанр: Драма, мелодрама, история
Год выпуска: 2018
Продолжительность: 02:03:28
Перевод: Профессиональный (многоголосый закадровый) Jaskier
Субтитры: Русские (PhysKids), английские

Режиссер: Майк Ньюэлл / Mike Newell

В ролях: Лили Джеймс, Джессика Браун-Финдлэй, Мэттью Гуд, Глен Пауэлл, Микил Хаусмен, Кэтрин Паркинсон, Пенелопа Уилтон, Том Кортни, Брона Галлахер, Марек Оравек

Описание: В послевоенном Лондоне молодая писательница Джулиет пытается найти сюжет для новой книги, но об ужасах войны писать ей решительно не хочется, прочие темы кажутся либо скучными, либо неуместными. На помощь приходит случай - в виде письма одного свиновода с острова Гернси. Оказывается, даже свинари любят почитать, и неведомый Доуси, к которому в руки попала книга, некогда принадлежавшая Джулиет, просит ее посоветовать хорошую книжную лавку. Дело в том, что на Гернси с книгами сейчас туго, поскольку остров, в годы войны оккупированный немцами, только-только возрождается к жизни. Письмо переворачивает жизнь Джулиет. История книжного клуба, ставшего прикрытием для запрещенных встреч жителей деревни, увлекает и затягивает ее. Так начинается переписка с самыми разными людьми.

ratingскриншот  

Тип релиза: BDRemux 1080p
Контейнер: MKV
Видео: MPEG-4 AVC, 1080p, 1920:1080, 29858 kbps, 24.000 fps
Аудио 1: АС3, 6 ch, 48 kHz, 640 kbps Русский MVO Jaskier
Аудио 2: DTS HD MA, 6 ch, 48 kHz, 3375 kbps, 24-bit (DTS Core 6 ch, 48 kHz, 768 kbps) Английский
Формат субтитров: SRT
https://yadi.sk/i/SrG95bCnLo0DZg
General
Unique ID : 311560223427660932314165616978355191979 (0xEA6450FE24E2BBD173C7FC1546CA80AB)
Complete name : G:\The.Guernsey.Literary.and.Potato.Peel.Pie.Society.2018.REMUX.mkv
Format : Matroska
Format version : Version 4 / Version 2
File size : 29.2 GiB
Duration : 2 h 3 min
Overall bit rate mode : Variable
Overall bit rate : 33.9 Mb/s
Encoded date : UTC 2018-12-08 10:04:45
Writing application : mkvmerge v20.0.0 ('I Am The Sun') 64-bit
Writing library : libebml v1.3.5 + libmatroska v1.4.8

Video
ID : 1
Format : AVC
Format/Info : Advanced Video Codec
Format profile : High@L4.1
Format settings : CABAC / 3 Ref Frames
Format settings, CABAC : Yes
Format settings, RefFrames : 3 frames
Codec ID : V_MPEG4/ISO/AVC
Duration : 2 h 3 min
Bit rate mode : Variable
Bit rate : 29.9 Mb/s
Maximum bit rate : 35.0 Mb/s
Width : 1 920 pixels
Height : 1 080 pixels
Display aspect ratio : 16:9
Frame rate mode : Constant
Frame rate : 24.000 FPS
Standard : NTSC
Color space : YUV
Chroma subsampling : 4:2:0
Bit depth : 8 bits
Scan type : Progressive
Bits/(Pixel*Frame) : 0.600
Stream size : 25.7 GiB (88%)
Language : English
Default : Yes
Forced : No
Color range : Limited
Color primaries : BT.709
Transfer characteristics : BT.709
Matrix coefficients : BT.709

Audio #1
ID : 2
Format : AC-3
Format/Info : Audio Coding 3
Codec ID : A_AC3
Duration : 2 h 3 min
Bit rate mode : Constant
Bit rate : 640 kb/s
Channel(s) : 6 channels
Channel positions : Front: L C R, Side: L R, LFE
Sampling rate : 48.0 kHz
Frame rate : 31.250 FPS (1536 SPF)
Bit depth : 16 bits
Compression mode : Lossy
Stream size : 565 MiB (2%)
Title : Jaskier
Language : Russian
Service kind : Complete Main
Default : Yes
Forced : No

Audio #2
ID : 3
Format : DTS
Format/Info : Digital Theater Systems
Format profile : MA / Core
Codec ID : A_DTS
Duration : 2 h 3 min
Bit rate mode : Variable / Constant
Bit rate : 3 375 kb/s / 768 kb/s
Channel(s) : 6 channels
Channel positions : Front: L C R, Side: L R, LFE
Sampling rate : 48.0 kHz
Frame rate : 93.750 FPS (512 SPF)
Bit depth : 24 bits
Compression mode : Lossless / Lossy
Stream size : 2.91 GiB (10%)
Language : English
Default : No
Forced : No

Text #1
ID : 4
Format : UTF-8
Codec ID : S_TEXT/UTF8
Codec ID/Info : UTF-8 Plain Text
Duration : 1 h 59 min
Bit rate : 98 b/s
Count of elements : 1761
Stream size : 85.9 KiB (0%)
Language : Russian
Default : No
Forced : No

Text #2
ID : 5
Format : UTF-8
Codec ID : S_TEXT/UTF8
Codec ID/Info : UTF-8 Plain Text
Duration : 1 h 59 min
Bit rate : 57 b/s
Count of elements : 1477
Stream size : 50.4 KiB (0%)
Language : English
Default : No
Forced : No

Menu
00:00:00.000 : en:Chapter 01
00:10:31.333 : en:Chapter 02
00:18:53.833 : en:Chapter 03
00:29:07.750 : en:Chapter 04
00:40:53.750 : en:Chapter 05
00:49:02.166 : en:Chapter 06
00:58:55.375 : en:Chapter 07
01:07:56.125 : en:Chapter 08
01:17:33.208 : en:Chapter 09
01:27:39.208 : en:Chapter 10
01:37:37.625 : en:Chapter 11
01:46:54.250 : en:Chapter 12
скриншот  скриншот  скриншот  
pb.wtf



Скачать Клуб любителей книг и пирогов из картофельных очистков через торрент https://i2.imageban.ru/out/2018/10/28/052865bd47bccd9133bb9bcc7c5a7ee2.png Скачать фильм Клуб любителей книг и пирогов из картофельных очистков через торрент бесплантно в хорошем качестве Описание: В послевоенном Лондоне молодая писательница Джулиет пытается найти сюжет для новой книги, но об ужасах войны писать ей решительно ... 5 10 1
Торрент: Зарегистрирован [2018-12-31 15:15] · скачан: 12 раз
Статус: √ проверено
Размер: 29.22 GB
Как cкачать? Как скачать Клуб любителей книг и пирогов из картофельных очистков через торрент | qTorrent

% Раздел Тема Автор DL S | L
Фильмы 2018 [DVDrip, WEB-DLRip, HDrip] (DUB, MVO) [ 1.45 GB ] Клуб любителей книг и пирогов из картофельных очистков / The Guernsey Literary and Potato Peel Pie Society [2018 история BDRip 1080p] bober100 Скачать
9 | 0
Фильмы [HD 720p, 1080p] (Хороший звук DUB, MVO) [ 5.76 GB ] Клуб любителей книг и пирогов из картофельных очистков / The Guernsey Literary and Potato Peel Pie Society [2018 история BDRip 720p] +MVO [Jaskier] bober100 Скачать
6 | 0
Фильмы [HD 720p, 1080p] (Хороший звук DUB, MVO) [ 9.26 GB ] Клуб любителей книг и пирогов из картофельных очистков / The Guernsey Literary and Potato Peel Pie Society [2018 история BDRip 1080p] +MVO [Jaskier] bober100 Скачать
8 | 0
Фильмы 2018 [DVDrip, WEB-DLRip, HDrip] (DUB, MVO) [ 1.46 GB ] Клуб любителей книг и пирогов из картофельных очистков / The Guernsey Literary and Potato Peel Pie Society [2018 история HDRip] [MVO] killermax2013 Скачать
1 | 0
Фильмы [HD 720p, 1080p] (Хороший звук DUB, MVO) [ 6.97 GB ] Клуб любителей книг и пирогов из картофельных очистков / The Guernsey Literary and Potato Peel Pie Society [2018 история BDRip 720p] MVO [Jaskier] bober100 Скачать
1 | 0
T Фильмы (мультфильмы) cо спонсором показа (Новинки AVI/MKV) [ 1.46 GB ] Клуб любителей книг и пирогов из картофельных очистков / The Guernsey Literary and Potato Peel Pie Society [2018 история HDRip] MVO [Jaskier] bober100 Скачать
1 | 0


>> Регистрируемся здесь <<






Отзывы и комментарии о схеме читаем и пишем здесь: ---> Отзывы и комментарии о схеме

Новые благодарочки в телеграм довольных пользователей:
скриншот   скриншот   скриншот   скриншот   скриншот
    Дорогой пользователь! Огромная просьба, поблагодарите релизера, оцените раздачу и оставьте свои комментарий, если Вы скачали Клуб любителей книг и пирогов из картофельных очистков через торрент бесплатно! Внесите свою лепту в развитие PiratBit!
    Комментировать посты могут только пользователи прошедшие не сложную регистрацию
    Показать сообщения:    

    Клуб любителей книг и пирогов из картофельных очистков через торрент
    Скачать бесплатно Клуб любителей книг и пирогов из картофельных очистков
    Клуб любителей книг и пирогов из картофельных очистков скачать торрент
    Клуб любителей книг и пирогов из картофельных очистков смотреть онлайн
    Cкачать фильм Клуб любителей книг и пирогов из картофельных очистков бесплатно
    Клуб любителей книг и пирогов из картофельных очистков скачать торрент в хорошем качестве
    Клуб любителей книг и пирогов из картофельных очистков смотреть онлайн бесплатно в хорошем качестве


    Вы не можете начинать темы
    Вы не можете отвечать на сообщения
    Вы не можете редактировать свои сообщения
    Вы не можете удалять свои сообщения
    Вы не можете голосовать в опросах
    Вы не можете прикреплять файлы к сообщениям
    Вы можете скачивать файлы