Ссылка на приватное зеркало нашего сайта всего за 1$. Внимание количество ограничено!!!

2 сезон

iTunes

1 сезон

1

iTunes

iTunes

iTunes

1 сезон

RePack

30

ИГРА 18+

pack

ВАЖНО

!!Акция!!

Alien_RageХит недели

RePack

MK11
pack

Забери бонус

RePack

jed

!!Акция!!

Alien_Rage

RePack

fifa19

RePack

Assassins Creed: Odyssey

RePack

NEED FOR SPEED™ PAYBACK

4 сезон

9 сезон

Бесстыжие 9 сезон

Все сериалы

все сериалы на PB.wtf

RePack

FAR CRY 5
  

Новогодний пес / Серии: 1-2 из 2 (Николай Каптан) [2018, криминал, SATRip] pb.wtf

Новогодний пес через торрент pb.wtf

Размер: 1.22 GB | Добавлен: 1 год 9 мес. назад | Торрент скачан:152 раза
Скачать  

31-12-2018 16:31 Новогодний пес Скачать торрент  

Новогодний песГод выпуска: 2018
Страна: Россия
Жанр: криминал
Продолжительность: ~ 00:44:00
Субтитры: отсутствуют

Режиссер: Николай Каптан

В ролях:

Никита Панфилов, Андрей Саминин, Ольга Олексий, Михаил Жонин, Денис Роднянский

Описание:

Что больше всего ждут люди в канун Нового Года? Конечно же, Деда Мороза! Но не всегда он приходит для того, чтобы дарить подарки. В этот раз усилия Макса и его Пса направлены на то, чтобы сбылось желание одного маленького мальчика, у которого Дед Мороз украл выигрышный лотерейный билет. Но ситуация осложняется тем, что за преступником охотится не только полиция, но и бандиты. А самих Дедов Морозов в предновогоднее время в городе не счесть. Параллельно недуг настигает и Гнездилова: мало того, что на него подействовало проклятие, так еще и разъяренный мужчина преследует его на каждом шагу…

Качество: SATRip
Формат: AVI

Видео: 720x400 (1.80:1), 25 fps, XviD build 50 ~1800 kbps avg, 0.25 bit/pixel
Аудио: 48 kHz, MPEG Layer 3, 2 ch, ~128.00 kbps avg
скриншот  скриншот  скриншот  

Общее
Полное имя : D:\Novogodnij.pes.SATRip.[www.riperam.org]\Novogodnij.pes.1.SATRip.[www.riperam.org].avi
Формат : AVI
Формат/Информация : Audio Video Interleave
Размер файла : 631 Мбайт
Продолжительность : 45 м. 30 с.
Общий поток : 1938 Кбит/сек
Программа кодирования : VirtualDubMod 1.5.10.3 | www.virtualdub-fr.org || (build 2550/release)
Библиотека кодирования : VirtualDubMod build 2550/release

Видео
Идентификатор : 0
Формат : MPEG-4 Visual
Профиль формата : Advanced Simple@L5
Параметр BVOP формата : 2
Параметр QPel формата : Нет
Параметр GMC формата : Без точки перехода
Параметр матрицы формата : Default (H.263)
Идентификатор кодека : XVID
Идентификатор кодека/Подсказка : XviD
Продолжительность : 45 м. 30 с.
Битрейт : 1800 Кбит/сек
Ширина : 720 пикселей
Высота : 400 пикселей
Соотношение сторон : 16:9
Частота кадров : 25,000 кадров/сек
Цветовое пространство : YUV
Субдискретизация насыщенности : 4:2:0
Битовая глубина : 8 бит
Тип развёртки : Прогрессивная
Метод сжатия : С потерями
Бит/(Пиксели*Кадры) : 0.239
Размер потока : 561 Мбайт (89%)
Библиотека кодирования : XviD 1.2.1 (UTC 2008-12-04)

Аудио
Идентификатор : 1
Формат : MPEG Audio
Версия формата : Version 1
Профиль формата : Layer 3
Режим : Joint stereo
Расширение режима : MS Stereo
Идентификатор кодека : 55
Идентификатор кодека/Подсказка : MP3
Продолжительность : 45 м. 30 с.
Вид битрейта : Постоянный
Битрейт : 128 Кбит/сек
Каналы : 2 канала
Частота : 48,0 КГц
Метод сжатия : С потерями
Размер потока : 41,7 Мбайт (7%)
Выравнивание : Соединение по промежуткам
Библиотека кодирования : LAME3.99r
Настройки программы : -m j -V 4 -q 9 -lowpass 17 -b 128

pb.wtf



Скачать Новогодний пес через торрент https://i93.fastpic.ru/big/2018/1022/1d/fcadc43390ba1a17e3bf0e648efce91d.jpg Скачать фильм Новогодний пес через торрент бесплантно в хорошем качестве Описание: Что больше всего ждут люди в канун Нового Года? Конечно же, Деда Мороза! Но не всегда он приходит для того, чтобы дарить подарки. ... 10 10 6
Торрент: Зарегистрирован [2018-12-31 16:31] · скачан: 152 раз
Статус: √ проверено
Размер: 1.22 GB
Как cкачать? Как скачать Новогодний пес через торрент | qTorrent

% Раздел Тема Автор DL S | L
Наши сериалы [ 1.17 GB ] Новогодний Пёс / Серии: 1-2 из 2 [2018 SATRip-AVC] aleksan55 Скачать
1 | 0


Последний раз редактировалось: bober100 (2019-01-01 11:14), всего редактировалось 1 раз

28-11-2019 20:33  

Отключить всю рекламу на сайте

31-12-2018 16:48 Новогодний пес Скачать торрент  

Ура неужели будет 4 сезон в 2019 году.pb.wtf
Kbober100 писал(а):

Он довно уже есть Пёс / Сезон: 4 / Серии: 1-22 из 22



31-12-2018 19:47 Новогодний пес Скачать торрент  

Ой извините ошибся . 5 сезонpb.wtf



    Дорогой пользователь! Огромная просьба, поблагодарите релизера, оцените раздачу и оставьте свои комментарий, если Вы скачали Новогодний пес через торрент бесплатно! Внесите свою лепту в развитие PiratBit!
    Комментировать посты могут только пользователи прошедшие не сложную регистрацию
    Показать сообщения:    

    Новогодний пес через торрент
    Скачать бесплатно Новогодний пес
    Новогодний пес скачать торрент
    Новогодний пес смотреть онлайн
    Cкачать фильм Новогодний пес бесплатно
    Новогодний пес скачать торрент в хорошем качестве
    Новогодний пес смотреть онлайн бесплатно в хорошем качестве


    Вы не можете начинать темы
    Вы не можете отвечать на сообщения
    Вы не можете редактировать свои сообщения
    Вы не можете удалять свои сообщения
    Вы не можете голосовать в опросах
    Вы не можете прикреплять файлы к сообщениям
    Вы можете скачивать файлы