Ссылка на приватное зеркало нашего сайта всего за 1$. Внимание количество ограничено!!!

2 сезон

iTunes

1 сезон

1

2 сезон

2 сезон

iTunes

1 сезон

RePack

30

Ultimate

ВАЖНО

ИГРА 18+

pack

RePack

MK11
pack

Забери бонус

RePack

jed

!!Акция!!

Alien_Rage

RePack

fifa19

RePack

Assassins Creed: Odyssey

RePack

NEED FOR SPEED™ PAYBACK

4 сезон

9 сезон

Бесстыжие 9 сезон

Все сериалы

все сериалы на PB.wtf

RePack

FAR CRY 5
  

Диаблеро / Diablero / Сезон: 1 / Серии: 1-8 из 8 (Ригоберто Кастаньеда, Хосе Мануэль Кравиотто) [2018, Ужасы, WEBRip 720p] [DVO] (Gears Media) pb.wtf

Диаблеро через торрент pb.wtf

Размер: 8.16 GB | Добавлен: 1 год 10 мес. назад | Торрент скачан:32 раза
Скачать  

31-12-2018 18:59 Диаблеро Скачать торрент  

Диаблеро / Diablero Год выпуска: 2018
Страна: Мексика
Жанр: Ужасы
Продолжительность: ~ 00:40:00
Перевод: Профессиональный (двухголосый закадровый)[Gears Media]

Режиссёр: Ригоберто Кастаньеда, Хосе Мануэль Кравиотто

В ролях: Джейсон Хи, Горасио Гарсиа Рохас, Хиселья Кури, Фатима Молина, Кристофер Укерман, Умберто Бусто

Описание:
Священник Рамиро Вентура объединяется с группой эксцентричных охотников на демонов и исследовательницей паранормального - и все для того, чтобы найти пропавшую девушку и преподать урок злу, спустившемуся на Мехико.

rating -Sample-

Качество: WEBRip 720p
Формат: MKV
Видео: X264, 1280x720 at 24.000 fps, ~2500 kbps avg
Аудио1: Russian, AC3, 48 kHz, 2 ch, 384 kbps
Аудио2: Spanish,EAC3, 48 kHz, 6 ch, 640 kbps
Субтитры: нет
Format : Matroska
Format version : Version 4
File size : 994 MiB
Duration : 39 min 48 s
Overall bit rate mode : Variable
Overall bit rate : 3 489 kb/s
Encoded date : UTC 2018-12-25 21:46:02
Writing application : mkvmerge v23.0.0 ('The Bride Said No') 64-bit
Writing library : libebml v1.3.6 + libmatroska v1.4.9

Video
ID : 1
Format : AVC
Format/Info : Advanced Video Codec
Format profile : Main@L3.1
Format settings : CABAC / 3 Ref Frames
Format settings, CABAC : Yes
Format settings, ReFrames : 3 frames
Codec ID : V_MPEG4/ISO/AVC
Duration : 39 min 48 s
Bit rate mode : Variable
Bit rate : 2 490 kb/s
Maximum bit rate : 3 735 kb/s
Width : 1 280 pixels
Height : 720 pixels
Display aspect ratio : 16:9
Frame rate mode : Constant
Frame rate : 24.000 FPS
Color space : YUV
Chroma subsampling : 4:2:0
Bit depth : 8 bits
Scan type : Progressive
Bits/(Pixel*Frame) : 0.113
Stream size : 701 MiB (71%)
Writing library : x264 core 148 r2715 7e75228
Encoding settings : cabac=1 / ref=3 / deblock=1:0:0 / analyse=0x1:0x111 / me=umh / subme=10 / psy=1 / psy_rd=1.00:0.00 / mixed_ref=1 / me_range=24 / chroma_me=1 / trellis=2 / 8x8dct=0 / cqm=0 / deadzone=21,11 / fast_pskip=1 / chroma_qp_offset=-2 / threads=6 / lookahead_threads=1 / sliced_threads=0 / nr=0 / decimate=1 / interlaced=0 / bluray_compat=0 / stitchable=1 / constrained_intra=0 / bframes=2 / b_pyramid=0 / b_adapt=2 / b_bias=0 / direct=3 / weightb=1 / open_gop=0 / weightp=2 / keyint=48 / keyint_min=25 / scenecut=0 / intra_refresh=0 / rc_lookahead=48 / rc=2pass / mbtree=1 / bitrate=2490 / ratetol=1.0 / qcomp=0.50 / qpmin=6 / qpmax=51 / qpstep=4 / cplxblur=20.0 / qblur=0.5 / vbv_maxrate=3735 / vbv_bufsize=4980 / nal_hrd=vbr / filler=0 / ip_ratio=1.40 / aq=1:1.00
Default : Yes
Forced : No

Audio #1
ID : 2
Format : AC-3
Format/Info : Audio Coding 3
Commercial name : Dolby Digital
Codec ID : A_AC3
Duration : 39 min 48 s
Bit rate mode : Constant
Bit rate : 384 kb/s
Channel(s) : 2 channels
Channel layout : L R
Sampling rate : 48.0 kHz
Frame rate : 31.250 FPS (1536 SPF)
Bit depth : 16 bits
Compression mode : Lossy
Stream size : 109 MiB (11%)
Title : Gears Media
Language : Russian
Service kind : Complete Main
Default : Yes
Forced : Yes

Audio #2
ID : 3
Format : E-AC-3
Format/Info : Enhanced AC-3
Commercial name : Dolby Digital Plus
Codec ID : A_EAC3
Duration : 39 min 48 s
Bit rate mode : Constant
Bit rate : 640 kb/s
Channel(s) : 6 channels
Channel layout : L R C LFE Ls Rs
Sampling rate : 48.0 kHz
Frame rate : 31.250 FPS (1536 SPF)
Compression mode : Lossy
Stream size : 182 MiB (18%)
Title : Spanish
Language : Spanish
Service kind : Complete Main
Default : No
Forced : No
скриншот  скриншот  скриншот  
pb.wtf



Скачать Диаблеро через торрент https://i107.fastpic.ru/big/2018/1222/23/ba798a7e4185f7f394817a51d170bd23.jpg Скачать фильм Диаблеро через торрент бесплантно в хорошем качестве Описание:Священник Рамиро Вентура объединяется с группой эксцентричных охотников на демонов и исследовательницей паранормального - и все ... 5 10 1
Торрент: Зарегистрирован [2018-12-31 18:59] · скачан: 32 раз
Статус: √ проверено
Размер: 8.16 GB
Как cкачать? Как скачать Диаблеро через торрент | qTorrent

% Раздел Тема Автор DL S | L
Зарубежные сериалы [ 33.84 GB ] Диаблеро / Diablero / Сезон: 1 / Серии: 1-8 из 8 [2018 WEB-DL 1080p] [MVO] killermax2013 Скачать
1 | 0
Зарубежные сериалы [ 3.8 GB ] Диаблеро / Diablero / Сезон: 1 / Серии: 1-8 из 8 [2018 WEBRip] [DVO] killermax2013 Скачать
1 | 0
Зарубежные сериалы [ 6.06 GB ] Диаблеро / Diablero / Сезон: 1 / Серии: 1-8 из 8 [2018 WEBRip 720p] DVO [SunshineStudio] bober100 Скачать
1 | 0

28-11-2019 20:33  

Отключить всю рекламу на сайте

    Дорогой пользователь! Огромная просьба, поблагодарите релизера, оцените раздачу и оставьте свои комментарий, если Вы скачали Диаблеро через торрент бесплатно! Внесите свою лепту в развитие PiratBit!
    Комментировать посты могут только пользователи прошедшие не сложную регистрацию
    Показать сообщения:    

    Диаблеро через торрент
    Скачать бесплатно Диаблеро
    Диаблеро скачать торрент
    Диаблеро смотреть онлайн
    Cкачать фильм Диаблеро бесплатно
    Диаблеро скачать торрент в хорошем качестве
    Диаблеро смотреть онлайн бесплатно в хорошем качестве


    Вы не можете начинать темы
    Вы не можете отвечать на сообщения
    Вы не можете редактировать свои сообщения
    Вы не можете удалять свои сообщения
    Вы не можете голосовать в опросах
    Вы не можете прикреплять файлы к сообщениям
    Вы можете скачивать файлы