Ссылка на приватное зеркало нашего сайта всего за 1$. Внимание количество ограничено!!!

2 сезон

iTunes

1 сезон

1

2 сезон

2 сезон

iTunes

1 сезон

RePack

30

Новинка

ВАЖНО

ИГРА 18+

pack

RePack

MK11
pack

Забери бонус

RePack

jed

!!Акция!!

Alien_Rage

RePack

fifa19

RePack

Assassins Creed: Odyssey

RePack

NEED FOR SPEED™ PAYBACK

4 сезон

9 сезон

Бесстыжие 9 сезон

Все сериалы

все сериалы на PB.wtf

RePack

FAR CRY 5
  

Кобра-Кай / Cobra Kai / Сезон: 1 / Серии: 1-10 из 10 (Джон Харвитц, Хейден Шлоссберг, Дженнифер Челотта) [2018, Боевик, драма, комедия, WEBRip] MVO [Good People] pb.wtf

Кобра-Кай через торрент pb.wtf

Размер: 3.33 GB | Добавлен: 1 год 10 мес. назад | Торрент скачан:51 раз
Скачать  

31-12-2018 19:53 Кобра-Кай Скачать торрент  

Кобра-Кай / Cobra Kai
Год выпуска: 2018
Страна: США
Жанр: Боевик, драма, комедия
Продолжительность: ~ 00:28:00
Перевод: Профессиональный многоголосый | Good People
Субтитры: отсутствуют

Режиссер: Джон Харвитц, Хейден Шлоссберг, Дженнифер Челотта

rating

В ролях:

Холо Маридуэньо, Тэннер Бьюкэнэн, Джейкоб Бертран, Кортни Хенгелер, Ральф Маччио, Мэри Мэтилин Маусер, Уильям Забка, Николь Браун, Коннор Мёрдок, Гриффин Сантопьетро

Описание:

В прошлом хулиган, а ныне разорившийся неудачник, Джонни Лоуренс считает, что единственный его шанс вернуться к нормальной жизни — заново открыть печально известную школу карате «Кобра Кай». Попытка наладить свои дела сводит Джонни с Дэниелом ЛаРуссо — успешным мужчиной, который изо всех сил старается сохранять жизненную гармонию, которой когда-то учил его мистер Мияги. Встретившись вновь, Дэнни и Джонни пытаются избавиться от демонов прошлого и проблем настоящего единственным известным им способом — с помощью карате.

Качество: WEBRip
Формат: AVI

Видео: ~ 1350 kbps, 720x400, 23.976 fps
Аудио#1 Rus: mp3, 48 KHz, 2 ch, 128 kbps
Аудио#2 Eng: mp3, 48 KHz, 2 ch, 128 kbps
скриншот  скриншот  скриншот  скриншот  

Общее
Полное имя : G:\Загрузки\Cobra.Kai.S01E01.WEBRip.Rus.Eng.GoodPeople.avi
Формат : AVI
Формат/Информация : Audio Video Interleave
Размер файла : 331 Мбайт
Продолжительность : 27 м. 30 с.
Общий поток : 1680 Кбит/сек
Программа кодирования : VirtualDubMod 1.5.10.3 | www.virtualdub-fr.org || (build 2550/release)
Библиотека кодирования : VirtualDubMod build 2550/release

Видео
Идентификатор : 0
Формат : MPEG-4 Visual
Профиль формата : Advanced Simple@L5
Настройки формата : BVOP1 / Custom Matrix
Параметр BVOP формата : 1
Параметр QPel формата : Нет
Параметр GMC формата : Без точки перехода
Параметр матрицы формата : Выборочная
Идентификатор кодека : XVID
Идентификатор кодека/Подсказка : XviD
Продолжительность : 27 м. 30 с.
Битрейт : 1410 Кбит/сек
Ширина : 720 пикселей
Высота : 400 пикселей
Соотношение сторон : 16:9
Частота кадров : 23,976 (24000/1001) кадра/сек
Цветовое пространство : YUV
Субдискретизация насыщенности : 4:2:0
Битовая глубина : 8 бит
Тип развёртки : Прогрессивная
Метод сжатия : С потерями
Бит/(Пиксели*Кадры) : 0.204
Размер потока : 278 Мбайт (84%)
Библиотека кодирования : XviD 73

Аудио #1
Идентификатор : 1
Формат : MPEG Audio
Версия формата : Version 1
Профиль формата : Layer 3
Настройки формата : Joint stereo / MS Stereo
Идентификатор кодека : 55
Идентификатор кодека/Подсказка : MP3
Продолжительность : 27 м. 30 с.
Вид битрейта : Постоянный
Битрейт : 128 Кбит/сек
Каналы : 2 канала
Частота : 48,0 КГц
Метод сжатия : С потерями
Размер потока : 25,2 Мбайт (8%)
Выравнивание : Соединение по промежуткам
Продолжительность промежутка : 42 мс. (1,00 видеокадр)
Время предзагрузки промежутка : 504 мс.

Аудио #2
Идентификатор : 2
Формат : MPEG Audio
Версия формата : Version 1
Профиль формата : Layer 3
Настройки формата : Joint stereo / MS Stereo
Идентификатор кодека : 55
Идентификатор кодека/Подсказка : MP3
Продолжительность : 27 м. 30 с.
Вид битрейта : Постоянный
Битрейт : 128 Кбит/сек
Каналы : 2 канала
Частота : 48,0 КГц
Метод сжатия : С потерями
Размер потока : 25,2 Мбайт (8%)
Выравнивание : Соединение по промежуткам
Продолжительность промежутка : 42 мс. (1,00 видеокадр)
Время предзагрузки промежутка : 504 мс.

pb.wtf



Скачать Кобра-Кай через торрент https://i108.fastpic.ru/big/2018/1231/2f/5f1ac10d4b99d915660f0b07b720452f.png Скачать фильм Кобра-Кай через торрент бесплантно в хорошем качестве Описание: В прошлом хулиган, а ныне разорившийся неудачник, Джонни Лоуренс считает, что единственный его шанс вернуться к нормальной жизни ... 10 10 3
Торрент: Зарегистрирован [2018-12-31 19:53] · скачан: 51 раз
Статус: √ проверено
Размер: 3.33 GB
Как cкачать? Как скачать Кобра-Кай через торрент | qTorrent

% Раздел Тема Автор DL S | L
Зарубежные сериалы [ 18.73 GB ] Кобра Кай / Cobra Kai / Сезон: 1 / Серии: 1-10 из 10 [2018 WEB-DL 1080p] MVO [VSI Moscow] bober100 Скачать
1 | 0
Зарубежные сериалы [ 2.06 GB ] Кобра Кай / Cobra Kai / Сезон: 2 / Серии: 1- из 10 [2019 WEB-DL 1080p] MVO [VSI Moscow] bober100 Скачать
1 | 0
Зарубежные сериалы [ 27.86 GB ] Кобра-Кай / Cobra Kai / Сезон: 2 / Серии: 1-10 из 10 [2019 WEB-DL 2160p] [MVO] killermax2013 Скачать
1 | 0
Зарубежные сериалы [ 13.7 GB ] Кобра-Кай / Cobra Kai / Сезон: 2 / Серии: 1-10 из 10 [2019 WEB-DL 1080p] [MVO] killermax2013 Скачать
2 | 0
Зарубежные сериалы [ 2.91 GB ] Кобра-Кай / Cobra Kai / Сезон: 2 / Серии: 1-10 из 10 [2019 WEBRip] [DVO] killermax2013 Скачать
1 | 0
Зарубежные сериалы [ 3.5 GB ] Кобра-Кай / Cobra Kai / Сезон: 2 / Серии: 1-10 из 10 [2019 WEB-DLRip] [MVO] killermax2013 Скачать
1 | 0
Зарубежные сериалы [ 17.49 GB ] Кобра-Кай / Cobra Kai / Сезон: 1 / Серии: 1-10 из 10 [2018 WEBRip 720p] MVO [Good People] bober100 Скачать
1 | 0

28-11-2019 20:33  

Отключить всю рекламу на сайте

    Дорогой пользователь! Огромная просьба, поблагодарите релизера, оцените раздачу и оставьте свои комментарий, если Вы скачали Кобра-Кай через торрент бесплатно! Внесите свою лепту в развитие PiratBit!
    Комментировать посты могут только пользователи прошедшие не сложную регистрацию
    Показать сообщения:    

    Кобра-Кай через торрент
    Скачать бесплатно Кобра-Кай
    Кобра-Кай скачать торрент
    Кобра-Кай смотреть онлайн
    Cкачать фильм Кобра-Кай бесплатно
    Кобра-Кай скачать торрент в хорошем качестве
    Кобра-Кай смотреть онлайн бесплатно в хорошем качестве


    Вы не можете начинать темы
    Вы не можете отвечать на сообщения
    Вы не можете редактировать свои сообщения
    Вы не можете удалять свои сообщения
    Вы не можете голосовать в опросах
    Вы не можете прикреплять файлы к сообщениям
    Вы можете скачивать файлы