Ссылка на приватное зеркало нашего сайта всего за 1$. Внимание количество ограничено!!!

2 сезон

iTunes

1 сезон

1

2 сезон

2 сезон

iTunes

1 сезон

RePack

30

Новинка

ВАЖНО

ИГРА 18+

pack

RePack

MK11
pack

Забери бонус

RePack

jed

!!Акция!!

Alien_Rage

RePack

fifa19

RePack

Assassins Creed: Odyssey

RePack

NEED FOR SPEED™ PAYBACK

4 сезон

9 сезон

Бесстыжие 9 сезон

Все сериалы

все сериалы на PB.wtf

RePack

FAR CRY 5
  

Ярди / Yardie (Идрис Эльба / Idris Elba) [2018, криминал, триллер, BDRemux 1080p] [DVO] (HiWay Grope) pb.wtf

Ярди через торрент pb.wtf

Размер: 20.97 GB | Добавлен: 1 год 11 мес. назад | Торрент скачан:12 раз
Скачать  

31-12-2018 20:04 Ярди Скачать торрент  

Ярди / Yardie

Год выпуска: 2018
Страна: Великобритания
Жанр: Криминал, триллер
Продолжительность: 01:41:43
Перевод: Любительский (двухголосый закадровый) HiWay Grope
Субтитры: Английские

Режиссер: Идрис Эльба / Idris Elba

В ролях: Антуан Экклстон, Фрайзер Джеймс, Амл Амин, Район Маклин, Марк Смит, Шелдон Шеперд, Кристофер Дейли, Решавна Дуглас, Александра Ваз, Крис-Энн Флетчер

Описание: Главный герой, родом с Ямайки, никак не может смириться со смертью старшего брата, которого убили 10 лет назад. Он едет в Лондон, где сходится с бывшей возлюбленной и впервые знакомится с дочкой. Когда герой решает начать новую жизнь, покончив с грязным бизнесом, судьба сталкивает его с убийцей брата, и тогда он вступает на путь мести, рискуя потерять всё, что ему дорого.Немного ненормативной лексикиrating скриншот  

Тип релиза: BDRemux 1080p
Контейнер: MKV
Видео: MPEG-4 AVC, 1920:1080, 25567 kbps, 24.000 fps
Аудио 1: АС3, 2 ch, 48 kHz, 192 kbps Русский DVO HiWay Grope
Аудио 2: DTS-HD MA, 6 ch, 48 kHz, 3754 kbps, 24-bit (DTS Core 6 ch, 48 kHz, 1509 kbps) Английский
Формат субтитров: SRT
General
Unique ID : 30664034743304459464107851222098112375 (0x1711ADA34909E7D00904CB640BDFEF77)
Complete name : G:\ФИЛЬМЫ\RuTRACKER\Yardie.2018.REMUX.mkv
Format : Matroska
Format version : Version 4 / Version 2
File size : 21.0 GiB
Duration : 1 h 41 min
Overall bit rate mode : Variable
Overall bit rate : 29.5 Mb/s
Encoded date : UTC 2018-12-30 09:06:34
Writing application : mkvmerge v20.0.0 ('I Am The Sun') 64-bit
Writing library : libebml v1.3.5 + libmatroska v1.4.8

Video
ID : 1
Format : AVC
Format/Info : Advanced Video Codec
Format profile : High@L4.1
Format settings : CABAC / 4 Ref Frames
Format settings, CABAC : Yes
Format settings, RefFrames : 4 frames
Codec ID : V_MPEG4/ISO/AVC
Duration : 1 h 41 min
Bit rate mode : Variable
Bit rate : 25.6 Mb/s
Maximum bit rate : 30.0 Mb/s
Width : 1 920 pixels
Height : 1 080 pixels
Display aspect ratio : 16:9
Frame rate mode : Constant
Frame rate : 24.000 FPS
Color space : YUV
Chroma subsampling : 4:2:0
Bit depth : 8 bits
Scan type : Progressive
Bits/(Pixel*Frame) : 0.514
Stream size : 18.2 GiB (87%)
Language : English
Default : Yes
Forced : No

Audio #1
ID : 2
Format : AC-3
Format/Info : Audio Coding 3
Codec ID : A_AC3
Duration : 1 h 41 min
Bit rate mode : Constant
Bit rate : 192 kb/s
Channel(s) : 2 channels
Channel positions : Front: L R
Sampling rate : 48.0 kHz
Frame rate : 31.250 FPS (1536 SPF)
Bit depth : 16 bits
Compression mode : Lossy
Stream size : 140 MiB (1%)
Language : Russian
Service kind : Complete Main
Default : Yes
Forced : No

Audio #2
ID : 3
Format : DTS
Format/Info : Digital Theater Systems
Format profile : MA / Core
Codec ID : A_DTS
Duration : 1 h 41 min
Bit rate mode : Variable / Constant
Bit rate : 3 754 kb/s / 1 509 kb/s
Channel(s) : 6 channels
Channel positions : Front: L C R, Side: L R, LFE
Sampling rate : 48.0 kHz
Frame rate : 93.750 FPS (512 SPF)
Bit depth : 24 bits
Compression mode : Lossless / Lossy
Stream size : 2.67 GiB (13%)
Language : English
Default : No
Forced : No

Text
ID : 4
Format : UTF-8
Codec ID : S_TEXT/UTF8
Codec ID/Info : UTF-8 Plain Text
Duration : 1 h 34 min
Bit rate : 61 b/s
Count of elements : 1217
Stream size : 43.0 KiB (0%)
Language : English
Default : No
Forced : No

Menu
00:00:00.000 : en:Chapter 01
00:09:15.083 : en:Chapter 02
00:15:07.958 : en:Chapter 03
00:23:05.166 : en:Chapter 04
00:33:07.916 : en:Chapter 05
00:43:47.666 : en:Chapter 06
00:53:34.166 : en:Chapter 07
00:59:48.833 : en:Chapter 08
01:06:19.541 : en:Chapter 09
01:20:51.666 : en:Chapter 10
01:29:15.208 : en:Chapter 11
01:34:55.708 : en:Chapter 12
скриншот  скриншот  скриншот  
pb.wtf



Скачать Ярди через торрент https://i106.fastpic.ru/big/2018/1230/8e/0d7144b20c7b7169e4b7fb557453a28e.jpg Скачать фильм Ярди через торрент бесплантно в хорошем качестве Описание: Главный герой, родом с Ямайки, никак не может смириться со смертью старшего брата, которого убили 10 лет назад. Он едет в Лондон, ... 5 10 1
Торрент: Зарегистрирован [2018-12-31 20:04] · скачан: 12 раз
Статус: T временная
Размер: 20.97 GB
Как cкачать? Как скачать Ярди через торрент | qTorrent

% Раздел Тема Автор DL S | L
# Фильмы (мультфильмы) cо спонсором показа (Новинки AVI/MKV) [ 5.2 GB ] Ярди / Yardie [2018 BDRip 720p] MVO ["Синема УС"] bober100 Скачать
1 | 0
T Фильмы (мультфильмы) cо спонсором показа (Новинки AVI/MKV) [ 1.37 GB ] Ярди / Yardie [2018 HDRip] MVO ["Синема УС"] bober100 Скачать
1 | 0

28-11-2019 20:33  

Отключить всю рекламу на сайте

    Дорогой пользователь! Огромная просьба, поблагодарите релизера, оцените раздачу и оставьте свои комментарий, если Вы скачали Ярди через торрент бесплатно! Внесите свою лепту в развитие PiratBit!
    Комментировать посты могут только пользователи прошедшие не сложную регистрацию
    Показать сообщения:    

    Ярди через торрент
    Скачать бесплатно Ярди
    Ярди скачать торрент
    Ярди смотреть онлайн
    Cкачать фильм Ярди бесплатно
    Ярди скачать торрент в хорошем качестве
    Ярди смотреть онлайн бесплатно в хорошем качестве


    Вы не можете начинать темы
    Вы не можете отвечать на сообщения
    Вы не можете редактировать свои сообщения
    Вы не можете удалять свои сообщения
    Вы не можете голосовать в опросах
    Вы не можете прикреплять файлы к сообщениям
    Вы можете скачивать файлы