Ссылка на приватное зеркало всего за 1$. Внимание количество ограничено!!!

OK

1+1

iTunes

мы

OK

1

WEB-DLRip

Джокер

Пифагор

Ведьмак / The Witcher сериал

Лицензия

ПШазам

ОК

Оно 2

iTunes

30
pack

Вам бонус

ВАЖНО

!!Акция!!

Alien_RageХит недели

RePack

Resident Evil 21

ИГРА 18+

pack

RePack

jed

!!Акция!!

Alien_Rage

RePack

fifa19

RePack

Assassins Creed: Odyssey

RePack

NEED FOR SPEED™ PAYBACK

4 сезон

9 сезон

Бесстыжие 9 сезон

Все сериалы

все сериалы на PB.wtf

RePack

FAR CRY 5
  

Аксель / A.X.L. (Оливер Дэйли) [2018, фантастика, приключения, семейный, BD Remux 1080p] DUB [iTunes] pb.wtf

Аксель через торрент pb.wtf

Раздают: 1 [ 0 KB/s ]
Размер: 25.56 GB | Добавлен: 1 год назад | Торрент скачан:169 раз
Скачать  

01-01-2019 06:18 Аксель Скачать торрент  

Аксель / A.X.L.
Год выпуска: 2018
Страна: США
Жанр: фантастика, приключения, семейный
Продолжительность: 01:36:38
Перевод: Дублированный | iTunes
Субтитры: Английские

Режиссер: Оливер Дэйли

rating

В ролях:

Томас Джейн, Бекки Джи, Тед МакГинли, Алекс Нюстадтер, Амин Наземзадех, Эрик Этебари, Алекс МакНиколл, Хасси Харрисон, Дориан Кинги, Патрисия де Леон

Описание:

Юный мотоциклист Майлз случайно находит новую военную разработку - гигантскую собаку-робота по имени Аксель. Обладая искусственным интеллектом следующего поколения, но с огромным сердцем верного пса, Аксель быстро становится лучшим другом парня. Но военные не намерены просто так отказаться от металлического зверя, который превзошел в развитии их самые смелые ожидания. История настоящей дружбы и преданности вышла на новый технологический уровень, но вечные законы жизни остались прежними: ты всегда в ответе за тех, кого приручил.

Качество: BD Remux 1080p
Формат: MKV

Видео: MPEG-4 AVC, 32.6 Mбит/с, 1920x1080, 23.976 кадр/с
Аудио#1: Русский (AC3, 6 ch, 384 Кбит/с)
Аудио#2: английский (DTS-HD МА, 6 ch, 4087 Кбит/с)
скриншот  скриншот  скриншот  скриншот  скриншот  

General
Unique ID : 173546999655339199237120844178112743736 (0x828FEFB3F1AB8FC48C991D0B56898938)
Complete name : G:\A.X.L.2018.REMUX.mkv
Format : Matroska
Format version : Version 4 / Version 2
File size : 25.6 GiB
Duration : 1 h 38 min
Overall bit rate mode : Variable
Overall bit rate : 37.1 Mb/s
Movie name : A.X.L.2018.BluRay.REMUX.1080p.AVC.DTS-HD.MA5.1-iFT
Encoded date : UTC 2018-12-31 23:36:24
Writing application : mkvmerge v20.0.0 ('I Am The Sun') 64-bit
Writing library : libebml v1.3.5 + libmatroska v1.4.8

Video
ID : 1
Format : AVC
Format/Info : Advanced Video Codec
Format profile : High@L4.1
Format settings : CABAC / 4 Ref Frames
Format settings, CABAC : Yes
Format settings, RefFrames : 4 frames
Format settings, GOP : M=3, N=12
Codec ID : V_MPEG4/ISO/AVC
Duration : 1 h 38 min
Bit rate mode : Variable
Bit rate : 32.6 Mb/s
Maximum bit rate : 35.0 Mb/s
Width : 1 920 pixels
Height : 1 080 pixels
Display aspect ratio : 16:9
Frame rate mode : Constant
Frame rate : 23.976 (24000/1001) FPS
Color space : YUV
Chroma subsampling : 4:2:0
Bit depth : 8 bits
Scan type : Progressive
Bits/(Pixel*Frame) : 0.656
Stream size : 22.5 GiB (88%)
Language : English
Default : Yes
Forced : No

Audio #1
ID : 2
Format : AC-3
Format/Info : Audio Coding 3
Codec ID : A_AC3
Duration : 1 h 38 min
Bit rate mode : Constant
Bit rate : 384 kb/s
Channel(s) : 6 channels
Channel positions : Front: L C R, Side: L R, LFE
Sampling rate : 48.0 kHz
Frame rate : 31.250 FPS (1536 SPF)
Bit depth : 16 bits
Compression mode : Lossy
Stream size : 271 MiB (1%)
Language : Russian
Service kind : Complete Main
Default : Yes
Forced : No

Audio #2
ID : 3
Format : DTS
Format/Info : Digital Theater Systems
Format profile : MA / Core
Codec ID : A_DTS
Duration : 1 h 38 min
Bit rate mode : Variable / Constant
Bit rate : 4 087 kb/s / 1 509 kb/s
Channel(s) : 6 channels
Channel positions : Front: L C R, Side: L R, LFE
Sampling rate : 48.0 kHz
Frame rate : 93.750 FPS (512 SPF)
Bit depth : 24 bits
Compression mode : Lossless / Lossy
Stream size : 2.82 GiB (11%)
Language : English
Default : No
Forced : No

Text
ID : 4
Format : UTF-8
Codec ID : S_TEXT/UTF8
Codec ID/Info : UTF-8 Plain Text
Duration : 1 h 28 min
Bit rate : 49 b/s
Count of elements : 1123
Stream size : 32.1 KiB (0%)
Language : English
Default : No
Forced : No

Menu
00:00:00.000 : :Capítulo 01
00:05:03.887 : :Capítulo 02
00:10:06.064 : :Capítulo 03
00:16:35.494 : :Capítulo 04
00:19:37.927 : :Capítulo 05
00:23:11.849 : :Capítulo 06
00:30:32.080 : :Capítulo 07
00:36:25.266 : :Capítulo 08
00:44:47.643 : :Capítulo 09
00:49:35.264 : :Capítulo 10
00:56:14.788 : :Capítulo 11
01:01:15.005 : :Capítulo 12
01:09:45.473 : :Capítulo 13
01:14:41.727 : :Capítulo 14
01:18:30.414 : :Capítulo 15
01:25:27.080 : :Capítulo 16

pb.wtf



Скачать Аксель через торрент https://d.radikal.ru/d38/1812/e4/ef4bc32b7163.png Скачать фильм Аксель через торрент бесплантно в хорошем качестве Описание: Юный мотоциклист Майлз случайно находит новую военную разработку - гигантскую собаку-робота по имени Аксель. Обладая ... 10 10 10
Info! Золотая раздача, скачанное не засчитывается.
Торрент: Зарегистрирован [2019-01-01 06:18] · скачан: 169 раз
Статус: √ проверено
Размер: 25.56 GB
Как cкачать? Как скачать Аксель через торрент | qTorrent

% Раздел Тема Автор DL S | L
Фильмы 2018 [DVDrip, WEB-DLRip, HDrip] (DUB, MVO) [ 1.83 GB ] Аксель / A.X.L. [2018 BDRip-AVC] bober100 Скачать
3 | 0
Фильмы [HD 720p, 1080p] (Хороший звук DUB, MVO) [ 5.73 GB ] Аксель / A.X.L. [2018 BDRip-HEVC 1080p ] bober100 Скачать
1 | 0
Фильмы (HD 720p, 1080p) (48-60 fps) [ 15.43 GB ] Аксель / A-X-L [2018 BDRip 1080p 60 fps] sheker187 Скачать
1 | 0
Фильмы [HD 720p, 1080p] (Хороший звук DUB, MVO) [ 11.73 GB ] Аксель / A-X-L [2018 BDRip 1080p] -Lexx- Скачать
5 | 0
Фильмы 2018 [DVDrip, WEB-DLRip, HDrip] (DUB, MVO) [ 1.4 GB ] Аксель / A.X.L. [2018 BDRip-AVC] - - ExKinoRay Enigma2010 Скачать
4 | 0
Фильмы 2018 [DVDrip, WEB-DLRip, HDrip] (DUB, MVO) [ 1.42 GB ] Аксель / A.X.L. [2018 BDRip] - Twi7ter Скачать
3 | 0
Фильмы 2018 [DVDrip, WEB-DLRip, HDrip] (DUB, MVO) [ 747 MB ] Аксель / A.X.L. [2018 BDRip] bober100 Скачать
2 | 0

28-11-2019 20:33  

Отключить всю рекламу на сайте

    Дорогой пользователь! Огромная просьба, поблагодарите релизера, оцените раздачу и оставьте свои комментарий, если Вы скачали Аксель через торрент бесплатно! Внесите свою лепту в развитие PiratBit!
    Комментировать посты могут только пользователи прошедшие не сложную регистрацию
    Показать сообщения:    

    Аксель через торрент
    Скачать бесплатно Аксель
    Аксель скачать торрент
    Аксель смотреть онлайн
    Cкачать фильм Аксель бесплатно
    Аксель скачать торрент в хорошем качестве
    Аксель смотреть онлайн бесплатно в хорошем качестве


    Вы не можете начинать темы
    Вы не можете отвечать на сообщения
    Вы не можете редактировать свои сообщения
    Вы не можете удалять свои сообщения
    Вы не можете голосовать в опросах
    Вы не можете прикреплять файлы к сообщениям
    Вы можете скачивать файлы