новый адрес
Мега распродажа FORZA HORIZON 4 ULTIMATE+ВСЕ DLC+ОНЛАЙН всего за 499р. 349 руб. (супер цена). Внимание количество ограничено!!!

iTunes

1+1

iTunes

мы

iTunes

1

iTunes

Чернобыль

iTunes

Ральф против интернета

Лицензия

ПШазам

Лицензия

Игра престолов

Лицензия

30
pack

ВАЖНО

!!Акция!!

Alien_RageХит недели

RePack

Resident Evil 21

ИГРА 18+

pack

RePack

Metro:Exodus

!!Акция!!

Alien_Rage

RePack

fifa19

RePack

Assassins Creed: Odyssey

RePack

NEED FOR SPEED™ PAYBACK

3 сезон

9 сезон

Бесстыжие 9 сезон

Все сериалы

все сериалы на PB.wtf

RePack

FAR CRY 5
Ребята, катастрофически не хватает 1900р. для оплаты серверов за Октябрь (всвязи с блокировками трафик упал в 3 раза), 1-2р., выручайте.
  

Загадай желание (Беркут) [2018, Казахстан, комедия, DVB] pb.wtf

Загадай желание через торрент pb.wtf

Раздают: 1 [ 28 KB/s ]
Размер: 1.52 GB | Добавлен: 10 мес. назад | Торрент скачан:243 раза
Скачать  

01-01-2019 08:20 Загадай желание Скачать торрент  

Загадай желание Страна: Казахстан
Жанр: комедия
Продолжительность: 01:34:21
Год выпуска: 2018
Перевод: не требуется
Субтитры: русские, вшитые (на казахские диалоги)
Режиссёр: Беркут
В ролях: Индира Едильбаева, Бауыржан Сатов, Асылбек Мусабеков, Кентал, Айым Сейтметова, Ауэз Ауэзов.
О фильме: Что если боевая граната окажется в руках у обезьяны?
Примерно такой же эффект может получиться, если волшебная ручка, исполняющая любое желание, попадёт в руки молодой девушки.

Семпл: https://www.sendspace.com/file/7l4rmn
Качество: DVB [ASTANA TV] (эфир 31.12.2018)
Формат: TS
Видео: AVC, 720x576 @ 1047x576 (16:9), 25 fps, ~1993 kbps, 0.192 bit/pixel
Аудио: [RUS] 48 kHz, MP2, 2 ch, 192 kbps
General
ID : 1 (0x1)
Complete name : H:\Раздачи\Загадай желание (2018) [DVB].ts
Format : MPEG-TS
File size : 1.52 GiB
Duration : 1 h 34 min
Overall bit rate mode : Variable
Overall bit rate : 2 301 kb/s

Video
ID : 67 (0x43)
Menu ID : 1 (0x1)
Format : AVC
Format/Info : Advanced Video Codec
Format profile : High@L3
Format settings : CABAC / 3 Ref Frames
Format settings, CABAC : Yes
Format settings, ReFrames : 3 frames
Format settings, GOP : M=4, N=24
Codec ID : 27
Duration : 1 h 34 min
Bit rate : 1 993 kb/s
Width : 720 pixels
Height : 576 pixels
Display aspect ratio : 16:9
Frame rate : 25.000 FPS
Standard : Component
Color space : YUV
Chroma subsampling : 4:2:0
Bit depth : 8 bits
Scan type : Interlaced
Scan type, store method : Separated fields
Scan order : Top Field First
Bits/(Pixel*Frame) : 0.192
Stream size : 1.31 GiB (87%)
Color range : Limited
Color primaries : BT.601 PAL
Transfer characteristics : BT.470 System B/G
Matrix coefficients : BT.470 System B/G

Audio
ID : 68 (0x44)
Menu ID : 1 (0x1)
Format : MPEG Audio
Format version : Version 1
Format profile : Layer 2
Codec ID : 3
Duration : 1 h 34 min
Bit rate mode : Constant
Bit rate : 192 kb/s
Channel(s) : 2 channels
Sampling rate : 48.0 kHz
Frame rate : 41.667 FPS (1152 SPF)
Compression mode : Lossy
Stream size : 130 MiB (8%)
Language : English
скриншот  скриншот  скриншот  
pb.wtf



Скачать Загадай желание через торрент https://i107.fastpic.ru/big/2019/0101/bd/db7700c4778692fe24a34afd7d966abd.jpg Скачать фильм Загадай желание через торрент бесплантно в хорошем качестве О фильме: Что если боевая граната окажется в руках у обезьяны?Примерно такой же эффект может получиться, если волшебная ручка, исполняющая ... 9.6 10 5
Торрент: Зарегистрирован [2019-01-01 08:20] · скачан: 243 раз
Статус: √ проверено
Размер: 1.52 GB
Как cкачать? Как скачать Загадай желание через торрент | qTorrent


>> Регистрируемся здесь <<






Отзывы и комментарии о схеме читаем и пишем здесь: ---> Отзывы и комментарии о схеме

Новые благодарочки в телеграм довольных пользователей:
скриншот   скриншот   скриншот   скриншот   скриншот

01-01-2019 15:21 Загадай желание Скачать торрент  

Топик был перенесен из форума Фильмы 2018 [DVDrip, WEB-DLRip, HDrip] (DUB, MVO) в форум Наши новые фильмы 2018


bober100pb.wtf



01-01-2019 15:56 Загадай желание Скачать торрент  

Вечер казахского кино продолжается.pb.wtf



    Дорогой пользователь! Огромная просьба, поблагодарите релизера, оцените раздачу и оставьте свои комментарий, если Вы скачали Загадай желание через торрент бесплатно! Внесите свою лепту в развитие PiratBit!
    Комментировать посты могут только пользователи прошедшие не сложную регистрацию
    Показать сообщения:    

    Загадай желание через торрент
    Скачать бесплатно Загадай желание
    Загадай желание скачать торрент
    Загадай желание смотреть онлайн
    Cкачать фильм Загадай желание бесплатно
    Загадай желание скачать торрент в хорошем качестве
    Загадай желание смотреть онлайн бесплатно в хорошем качестве


    Вы не можете начинать темы
    Вы не можете отвечать на сообщения
    Вы не можете редактировать свои сообщения
    Вы не можете удалять свои сообщения
    Вы не можете голосовать в опросах
    Вы не можете прикреплять файлы к сообщениям
    Вы можете скачивать файлы