новый адрес
Мега распродажа FORZA HORIZON 4 ULTIMATE+ВСЕ DLC+ОНЛАЙН всего за 499р. 349 руб. (супер цена). Внимание количество ограничено!!!

iTunes

1+1

iTunes

мы

iTunes

1

iTunes

Чернобыль

iTunes

Ральф против интернета

Лицензия

ПШазам

Лицензия

Оно 2

Лицензия

30
pack

ВАЖНО

!!Акция!!

Alien_RageХит недели

RePack

Resident Evil 21

ИГРА 18+

pack

RePack

jed

!!Акция!!

Alien_Rage

RePack

fifa19

RePack

Assassins Creed: Odyssey

RePack

NEED FOR SPEED™ PAYBACK

3 сезон

9 сезон

Бесстыжие 9 сезон

Все сериалы

все сериалы на PB.wtf

RePack

FAR CRY 5
Ребята, катастрофически не хватает 1900р. для оплаты серверов за Октябрь (всвязи с блокировками трафик упал в 3 раза), 1-2р., выручайте.
  

Жена – не стена (Аскар Бисембин) [2018, комедия, DVB] pb.wtf

Жена – не стена через торрент pb.wtf

Размер: 1.09 GB | Добавлен: 10 мес. назад | Торрент скачан:300 раз
Скачать  

01-01-2019 09:28 Жена – не стена Скачать торрент  

Жена – не стена Страна: Казахстан
Жанр: комедия
Продолжительность: 01:13:55
Год выпуска: 2018
Перевод: не требуется
Субтитры: русские, вшитые (на казахские диалоги)
Режиссёр: Аскар Бисембин

В ролях: Сая Оразгалиева, Асель Садвакасова, Жан Байжанбаев, Даурен Айдаркулов, Айнур Ильясова, Алия Абитова.
О фильме: История, разворачивающаяся вокруг одной семьи. Отношения между супругами постепенно остывают, и однажды жена узнает, что муж завел интрижку на стороне. Как многие женщины, она хочет закатить скандал и высказать супругу все в лицо. Но лучшая подруга уговаривает ее этого не делать, а поступить мудро: найти эту любовницу и аккуратно от нее избавиться. Таким образом, начинается операция по устранению соперницы.


Семпл: https://www.sendspace.com/file/mjdpvw
Качество: DVB [НТК] (эфир 15.12.2018)
Формат: TS
Видео: AVC, 720x576 @ 1047x576 (16:9), 25 fps, ~1815 kbps, 0.175 bit/pixel
Аудио: [RUS] 48 kHz, MP2, 1 ch, 192 kbps
General
ID : 1 (0x1)
Complete name : H:\Раздачи\Жена - не стена (2018) [НТК].ts
Format : MPEG-TS
File size : 1.09 GiB
Duration : 1 h 13 min
Overall bit rate mode : Variable
Overall bit rate : 2 113 kb/s

Video
ID : 67 (0x43)
Menu ID : 1 (0x1)
Format : AVC
Format/Info : Advanced Video Codec
Format profile : High@L3
Format settings : CABAC / 3 Ref Frames
Format settings, CABAC : Yes
Format settings, ReFrames : 3 frames
Format settings, GOP : M=4, N=24
Codec ID : 27
Duration : 1 h 13 min
Bit rate : 1 815 kb/s
Width : 720 pixels
Height : 576 pixels
Display aspect ratio : 16:9
Frame rate : 25.000 FPS
Standard : Component
Color space : YUV
Chroma subsampling : 4:2:0
Bit depth : 8 bits
Scan type : Interlaced
Scan type, store method : Separated fields
Scan order : Top Field First
Bits/(Pixel*Frame) : 0.175
Stream size : 960 MiB (86%)
Color range : Limited
Color primaries : BT.601 PAL
Transfer characteristics : BT.470 System B/G
Matrix coefficients : BT.470 System B/G

Audio
ID : 68 (0x44)
Menu ID : 1 (0x1)
Format : MPEG Audio
Format version : Version 1
Format profile : Layer 2
Codec ID : 3
Duration : 1 h 13 min
Bit rate mode : Constant
Bit rate : 192 kb/s
Channel(s) : 1 channel
Sampling rate : 48.0 kHz
Frame rate : 41.667 FPS (1152 SPF)
Compression mode : Lossy
Delay relative to video : -120 ms
Stream size : 102 MiB (9%)
Language : English
скриншот  скриншот  скриншот  
pb.wtf



Скачать Жена – не стена через торрент https://i106.fastpic.ru/big/2018/1215/3e/d07316bf674d13d8ea6cea7009897f3e.jpg Скачать фильм Жена – не стена через торрент бесплантно в хорошем качестве О фильме: История, разворачивающаяся вокруг одной семьи. Отношения между супругами постепенно остывают, и однажды жена узнает, что муж ... 9.1 10 10
Info! Золотая раздача, скачанное не засчитывается.
Торрент: Зарегистрирован [2019-01-01 09:28] · скачан: 300 раз
Статус: √ проверено
Размер: 1.09 GB
Как cкачать? Как скачать Жена – не стена через торрент | qTorrent


>> Регистрируемся здесь <<






Отзывы и комментарии о схеме читаем и пишем здесь: ---> Отзывы и комментарии о схеме

Новые благодарочки в телеграм довольных пользователей:
скриншот   скриншот   скриншот   скриншот   скриншот

01-01-2019 10:33 Жена – не стена Скачать торрент  

Заценим,сейчас казахи начали не плохие фильмы снимать)pb.wtf



01-01-2019 12:12 Жена – не стена Скачать торрент  

Скорпион1976 писал(а):

Заценим,сейчас казахи начали не плохие фильмы снимать)

Агаpb.wtf



01-01-2019 13:17 Жена – не стена Скачать торрент  

Топик был перенесен из форума Фильмы 2018 [DVDrip, WEB-DLRip, HDrip] (DUB, MVO) в форум Наши новые фильмы 2018


bober100pb.wtf



    Дорогой пользователь! Огромная просьба, поблагодарите релизера, оцените раздачу и оставьте свои комментарий, если Вы скачали Жена – не стена через торрент бесплатно! Внесите свою лепту в развитие PiratBit!
    Комментировать посты могут только пользователи прошедшие не сложную регистрацию
    Показать сообщения:    

    Жена – не стена через торрент
    Скачать бесплатно Жена – не стена
    Жена – не стена скачать торрент
    Жена – не стена смотреть онлайн
    Cкачать фильм Жена – не стена бесплатно
    Жена – не стена скачать торрент в хорошем качестве
    Жена – не стена смотреть онлайн бесплатно в хорошем качестве


    Вы не можете начинать темы
    Вы не можете отвечать на сообщения
    Вы не можете редактировать свои сообщения
    Вы не можете удалять свои сообщения
    Вы не можете голосовать в опросах
    Вы не можете прикреплять файлы к сообщениям
    Вы можете скачивать файлы