новый адрес пиратбит piratbit
Мега распродажа FORZA HORIZON 4 ULTIMATE+ВСЕ DLC+ОНЛАЙН всего за 499р. 349 руб. (супер цена). Внимание количество ограничено!!!

iTunes

1+1

iTunes

мы

iTunes

1

iTunes

Чернобыль

iTunes

Ральф против интернета

Лицензия

ПШазам

Лицензия

Игра престолов

Лицензия

30
pack

ВАЖНО

!!Акция!!

Alien_RageХит недели

RePack

Resident Evil 21

ИГРА 18+

pack

RePack

Metro:Exodus

!!Акция!!

Alien_Rage

RePack

fifa19

RePack

Assassins Creed: Odyssey

RePack

NEED FOR SPEED™ PAYBACK

3 сезон

9 сезон

Бесстыжие 9 сезон

Все сериалы

все сериалы на PB.wtf

RePack

FAR CRY 5
Ребята, катастрофически не хватает 1900р. для оплаты серверов за Октябрь (всвязи с блокировками трафик упал в 3 раза), 1-2р., выручайте.
  

Финансист. Игра на вылет (Елена Лисасина) [2018, триллер, драма, криминал, DVB] pb.wtf

Финансист. Игра на вылет через торрент pb.wtf

Размер: 1.33 GB | Добавлен: 10 мес. назад | Торрент скачан:146 раз
Скачать  

01-01-2019 09:31 Финансист. Игра на вылет Скачать торрент  

Финансист. Игра на вылет Страна: Казахстан
Жанр: триллер, драма, криминал
Продолжительность: 01:33:11
Год выпуска: 2018
Перевод: не требуется
Субтитры: отсутствуют
Режиссёр: Елена Лисасина

В ролях: Асылхан Толепов, Чингиз Капин, Карина Жумалиева, Алдабек Шалбаев, Бахытжан Альпеисов, Ерболат Байганин, Екатерина Григоренко, Филипп Волошин, Айнур Турганбаева, Майя Веронская.
О фильме: Брокеры, фондовая биржа… Манящий и пугающий мир денег, где на кон поставлены собственность, здоровье, а то и жизнь его героев. Одарённый Руслан становится финансистом с подачи друга детства Таира. Внезапно, в ходе биржевых спекуляций они вступают в схватку с людьми, для которых человеческая жизнь — разменная монета.
Дружба, любовь и другие чувства будут испытаны «денежным потоком». Что они выберут, как выплывут?


Семпл: https://www.sendspace.com/file/a83a5h
Качество: DVB [ASTANA TV] (эфир 15.12.2018)
Формат: TS
Видео: AVC, 720x576 @ 1047x576 (16:9), 25 fps, ~1755 kbps, 0.169 bit/pixel
Аудио: [RUS] 48 kHz, MP2, 2 ch, 192 kbps
General
ID : 1 (0x1)
Complete name : H:\Раздачи\Финансист. Игра на вылет (2018) [Astana TV].ts
Format : MPEG-TS
File size : 1.33 GiB
Duration : 1 h 33 min
Overall bit rate mode : Variable
Overall bit rate : 2 050 kb/s

Video
ID : 67 (0x43)
Menu ID : 1 (0x1)
Format : AVC
Format/Info : Advanced Video Codec
Format profile : High@L3
Format settings : CABAC / 3 Ref Frames
Format settings, CABAC : Yes
Format settings, ReFrames : 3 frames
Codec ID : 27
Duration : 1 h 33 min
Bit rate : 1 755 kb/s
Width : 720 pixels
Height : 576 pixels
Display aspect ratio : 16:9
Frame rate : 25.000 FPS
Standard : Component
Color space : YUV
Chroma subsampling : 4:2:0
Bit depth : 8 bits
Scan type : Interlaced
Scan type, store method : Separated fields
Scan order : Top Field First
Bits/(Pixel*Frame) : 0.169
Stream size : 1.14 GiB (86%)
Color range : Limited
Color primaries : BT.601 PAL
Transfer characteristics : BT.470 System B/G
Matrix coefficients : BT.470 System B/G

Audio
ID : 68 (0x44)
Menu ID : 1 (0x1)
Format : MPEG Audio
Format version : Version 1
Format profile : Layer 2
Codec ID : 3
Duration : 1 h 33 min
Bit rate mode : Constant
Bit rate : 192 kb/s
Channel(s) : 2 channels
Sampling rate : 48.0 kHz
Frame rate : 41.667 FPS (1152 SPF)
Compression mode : Lossy
Stream size : 128 MiB (9%)
Language : English
скриншот  скриншот  скриншот  
pb.wtf



Скачать Финансист. Игра на вылет через торрент https://i108.fastpic.ru/big/2018/1216/35/2add72dc434d0171b30cd9e81d5bc635.jpg Скачать фильм Финансист. Игра на вылет через торрент бесплантно в хорошем качестве О фильме: Брокеры, фондовая биржа… Манящий и пугающий мир денег, где на кон поставлены собственность, здоровье, а то и жизнь его героев. ... 7.8 10 5
Торрент: Зарегистрирован [2019-01-01 09:31] · скачан: 146 раз
Статус: √ проверено
Размер: 1.33 GB
Как cкачать? Как скачать Финансист. Игра на вылет через торрент | qTorrent

% Раздел Тема Автор DL S | L
Наши новые фильмы 2018-2019 [ 1.38 GB ] Финансист. Игра на вылет [2018 SATRip] bober100 Скачать
1 | 0


>> Регистрируемся здесь <<






Отзывы и комментарии о схеме читаем и пишем здесь: ---> Отзывы и комментарии о схеме

Новые благодарочки в телеграм довольных пользователей:
скриншот   скриншот   скриншот   скриншот   скриншот

01-01-2019 13:16 Финансист. Игра на вылет Скачать торрент  

Топик был перенесен из форума Фильмы 2018 [DVDrip, WEB-DLRip, HDrip] (DUB, MVO) в форум Наши новые фильмы 2018


bober100pb.wtf



01-01-2019 19:50 Финансист. Игра на вылет Скачать торрент  

Жуткий казахский шлак.pb.wtf



    Дорогой пользователь! Огромная просьба, поблагодарите релизера, оцените раздачу и оставьте свои комментарий, если Вы скачали Финансист. Игра на вылет через торрент бесплатно! Внесите свою лепту в развитие PiratBit!
    Комментировать посты могут только пользователи прошедшие не сложную регистрацию
    Показать сообщения:    

    Финансист. Игра на вылет через торрент
    Скачать бесплатно Финансист. Игра на вылет
    Финансист. Игра на вылет скачать торрент
    Финансист. Игра на вылет смотреть онлайн
    Cкачать фильм Финансист. Игра на вылет бесплатно
    Финансист. Игра на вылет скачать торрент в хорошем качестве
    Финансист. Игра на вылет смотреть онлайн бесплатно в хорошем качестве


    Вы не можете начинать темы
    Вы не можете отвечать на сообщения
    Вы не можете редактировать свои сообщения
    Вы не можете удалять свои сообщения
    Вы не можете голосовать в опросах
    Вы не можете прикреплять файлы к сообщениям
    Вы можете скачивать файлы