Ссылка на приватное зеркало нашего сайта всего за 1$. Внимание количество ограничено!!!

2 сезон

iTunes

1 сезон

1

2 сезон

2 сезон

iTunes

1 сезон

RePack

30

Новинка

ВАЖНО

ИГРА 18+

pack

RePack

MK11
pack

Забери бонус

RePack

jed

!!Акция!!

Alien_Rage

RePack

fifa19

RePack

Assassins Creed: Odyssey

RePack

NEED FOR SPEED™ PAYBACK

4 сезон

9 сезон

Бесстыжие 9 сезон

Все сериалы

все сериалы на PB.wtf

RePack

FAR CRY 5
  

Американцы / The Americans / Сезон: 5 / Серии: 1-13 из 13 (Адам Аркин) [2017, триллер, драма, криминал, детектив, WEBRip] DVO [Кубик в Кубе] pb.wtf

Американцы через торрент pb.wtf

Размер: 11.96 GB | Добавлен: 1 год 11 мес. назад | Торрент скачан:22 раза
Скачать  

01-01-2019 12:07 Американцы Скачать торрент  

Американцы / The Americans«All's fair in love and cold war» Год выпуска: 2017
Страна: США
Жанр: триллер, драма, криминал, детектив
Продолжительность: ~00:54:00
Перевод: Профессиональный (двухголосый закадровый) | Кубик в Кубе
Субтитры: Отсутствуют

Режиссёр: Адам Аркин / Adam Arkin, Гэвин О’Коннор / Gavin O'Connor

В ролях:

Аннет Махендру, Холли Тейлор, Роман Блат, Пол Джуд Летерски, Мэттью Риз, Кери Расселл, Марми Косико, Дэн Флаэрти, Майкл Гэстон, Максимилианно Эрнандез, Келли Сауферлэнд, Давид Вадим, Дэмиен Боско, Чейз Коулмэн

Описание:

История о сложном браке двух агентов КГБ, которые под видом американцев заселяются в пригород Вашингтона сразу после того, как президентом избирают Рейгана. Подставной брак Филлипа и Элизабет с каждым днем становится все более настоящим и эмоциональным, несмотря на эскалацию холодной войны и опасные отношения, которые они должны поддерживать с сетью шпионов и информаторов. Напряжение нарастает, когда появляется новый сосед Стэн, агент ФБР, который работает в контрразведке.




Качество видео: WEBRip
Формат: AVI

Видео: XviD, 720x400 (16:9), 23.976 fps, ~2000 kbps, 0.29 Bits/Pixel
Аудио Rus: AC-3, 48,0 kHz, 6 ch, 384 kb/s |Кубик в Кубе|
Аудио Eng: AC-3, 48,0 kHz, 6 ch, 384 kb/s |Original|
Релиз: &
Работа со звуком: messafan
Озвучка: Кубик в Кубе
Перевод: El_Brujo
. Янтарные волны
. Вредители
. Мошки
. Что с Канзасом?
. Лотус 1-2-3
. Гибрид
. Комитет по правам человека
. Погружение
. Айхоп
. Тёмная комната
. Дятьково
. Всемирный совет церквей
. Советский отдел
Общее
Полное имя : E:\_Сериалы\_Сериалы\Американцы\The.Americans.S05.WEBRip.Rus.Eng.CasStudio\The.Americans.S05E01.WEBRip.Rus.Eng.CasStudio.avi
Формат : AVI
Формат/Информация : Audio Video Interleave
Размер файла : 970 Мбайт
Продолжительность : 48 м. 53 с.
Общий поток : 2775 Кбит/сек
Программа кодирования : VirtualDubMod 1.5.10.3 | www.virtualdub-fr.org || (build 2550/release)
Библиотека кодирования : VirtualDubMod build 2550/release

Видео
Идентификатор : 0
Формат : MPEG-4 Visual
Профиль формата : Advanced Simple@L5
Настройки формата : BVOP2
Параметр BVOP формата : 2
Параметр QPel формата : Нет
Параметр GMC формата : Без точки перехода
Параметр матрицы формата : Default (MPEG)
Идентификатор кодека : XVID
Идентификатор кодека/Подсказка : XviD
Продолжительность : 48 м. 53 с.
Битрейт : 1993 Кбит/сек
Ширина : 720 пикселей
Высота : 400 пикселей
Соотношение сторон : 16:9
Частота кадров : 23,976 (24000/1001) кадра/сек
Цветовое пространство : YUV
Субдискретизация насыщенности : 4:2:0
Битовая глубина : 8 бит
Тип развёртки : Прогрессивная
Метод сжатия : С потерями
Бит/(Пиксели*Кадры) : 0.289
Размер потока : 697 Мбайт (72%)
Библиотека кодирования : XviD 1.2.1 (UTC 2008-12-04)

Аудио #1
Идентификатор : 1
Формат : AC-3
Формат/Информация : Audio Coding 3
Идентификатор кодека : 2000
Продолжительность : 48 м. 53 с.
Вид битрейта : Постоянный
Битрейт : 384 Кбит/сек
Каналы : 6 каналов
Расположение каналов : Front: L C R, Side: L R, LFE
Частота : 48,0 КГц
Частота кадров : 31,250 кадров/сек (1536 SPF)
Битовая глубина : 16 бит
Метод сжатия : С потерями
Размер потока : 134 Мбайт (14%)
Выравнивание : Разделение по промежуткам
Продолжительность промежутка : 42 мс. (1,00 видеокадр)
Время предзагрузки промежутка : 500 мс.
ServiceKind/String : Complete Main

Аудио #2
Идентификатор : 2
Формат : AC-3
Формат/Информация : Audio Coding 3
Идентификатор кодека : 2000
Продолжительность : 48 м. 53 с.
Вид битрейта : Постоянный
Битрейт : 384 Кбит/сек
Каналы : 6 каналов
Расположение каналов : Front: L C R, Side: L R, LFE
Частота : 48,0 КГц
Частота кадров : 31,250 кадров/сек (1536 SPF)
Битовая глубина : 16 бит
Метод сжатия : С потерями
Размер потока : 134 Мбайт (14%)
Выравнивание : Разделение по промежуткам
Продолжительность промежутка : 42 мс. (1,00 видеокадр)
Время предзагрузки промежутка : 500 мс.
ServiceKind/String : Complete Main
1. Открыть торрент
2. Снять галки с тех файлов торрента, которые мы не хотим закачивать. Оставляем только на нужных нам файлах (файле).
3. Нажать О.К.

В клиенте utorrent

Инструкция

1) Открыть торрент


2) Снять галки с тех файлов торрента, которые мы не хотим закачивать:

* либо вручную, снимая с каждого файла галку( скрин №1)
* либо, нажав кнопку "Снять метки (Select None)", сняв сразу со всех файлов(скрин №2)
№1

№2

Оставляем только на нужных нам файлах (файле).

3)Нажать О.К
Приятного просмотра!!!pb.wtf



Скачать Американцы через торрент http://i105.fastpic.ru/big/2018/0605/10/f6fd01404b98ca83d3669ab7febb4010.png Скачать фильм Американцы через торрент бесплантно в хорошем качестве Описание:История о сложном браке двух агентов КГБ, которые под видом американцев заселяются в пригород Вашингтона сразу после того, как ... 10 10 3
Торрент: Зарегистрирован [2019-01-01 12:07] · скачан: 22 раз
Статус: √ проверено
Размер: 11.96 GB
Как cкачать? Как скачать Американцы через торрент | qTorrent

% Раздел Тема Автор DL S | L
Зарубежные сериалы [ 31.36 GB ] Американцы / The Americans / Сезон: 5 / Серии: 1-13 из 13 [2017 WEBRip 720p] DVO [Кубик в Кубе] bober100 Скачать
1 | 0
Зарубежные сериалы [ 11.76 GB ] Американцы / The Americans / Сезон: 5 / Серии 1-13 из 13 [2017 WEB-DLRip-AVC] MVO [NewStudio] GEKADOL Скачать
1 | 0

28-11-2019 20:33  

Отключить всю рекламу на сайте

    Дорогой пользователь! Огромная просьба, поблагодарите релизера, оцените раздачу и оставьте свои комментарий, если Вы скачали Американцы через торрент бесплатно! Внесите свою лепту в развитие PiratBit!
    Комментировать посты могут только пользователи прошедшие не сложную регистрацию
    Показать сообщения:    

    Американцы через торрент
    Скачать бесплатно Американцы
    Американцы скачать торрент
    Американцы смотреть онлайн
    Cкачать фильм Американцы бесплатно
    Американцы скачать торрент в хорошем качестве
    Американцы смотреть онлайн бесплатно в хорошем качестве


    Вы не можете начинать темы
    Вы не можете отвечать на сообщения
    Вы не можете редактировать свои сообщения
    Вы не можете удалять свои сообщения
    Вы не можете голосовать в опросах
    Вы не можете прикреплять файлы к сообщениям
    Вы можете скачивать файлы