Ссылка на приватное зеркало всего за 1$. Внимание количество ограничено!!!

OK

1+1

iTunes

мы

OK

1

WEB-DLRip

Джокер

Пифагор

Ведьмак / The Witcher сериал

Лицензия

ПШазам

ОК

Оно 2

iTunes

30
pack

Вам бонус

ВАЖНО

!!Акция!!

Alien_RageХит недели

RePack

Resident Evil 21

ИГРА 18+

pack

RePack

jed

!!Акция!!

Alien_Rage

RePack

fifa19

RePack

Assassins Creed: Odyssey

RePack

NEED FOR SPEED™ PAYBACK

4 сезон

9 сезон

Бесстыжие 9 сезон

Все сериалы

все сериалы на PB.wtf

RePack

FAR CRY 5
  

Сайлент Хилл 2 / Silent Hill: Revelation (Майкл Дж. Бассетт / Michael J. Bassett) [2012, ужасы, триллер, детектив, BDRip-AVC] [RUS Transfer / Open Matte] [DUB] pb.wtf

Сайлент Хилл 2 через торрент pb.wtf

Раздают: 1 [ 0 KB/s ]
Размер: 2.06 GB | Добавлен: 1 год назад | Торрент скачан:54 раза
Скачать  

01-01-2019 13:02 Сайлент Хилл 2 Скачать торрент  

Сайлент Хилл 2 / Silent Hill: Revelation Год выпуска: 2012
Страна: США, Канада, Франция
Жанр: ужасы, триллер, детектив
Продолжительность: 01:34:30
Перевод: Профессиональный (дублированный)
Субтитры: русские, английские

Режиссер: Майкл Дж. Бассетт / Michael J. Bassett

В ролях: Аделаида Клеменс, Кит Харингтон, Дебора Кара Ангер, Мартин Донован, Малкольм МакДауэлл, Кэрри-Энн Мосс, Шон Бин, Рада Митчелл, Роберто Кампанелла, Эрин Питт

Описание: Хизер терзается ночными кошмарами с одиннадцатилетнего возраста и вынуждена со своим отцом постоянно менять место жительства, скрываясь от таинственных сил. Накануне своего восемнадцатого дня рождения Хизер, вернувшись домой, обнаруживает, что её отец исчез. Единственное, что она нашла дома — нарисованный на стене оккультный символ с надписью «отправляйся в Сайлент Хилл».


Сэмпл: http://multi-up.com/1218554

Качество видео: BDRip-AVC [Open Matte ]
Формат видео: MKV
Видео: MPEG-4 AVC/H.264 / 2220 kbps / 1120x630 / 23.976 fps
Аудио: DUB (Rus) / AC3 / 6 ch / 448 kbps / 48 kHz
Аудио 2: Original (Eng) / AC3 / 6 ch / 448 kbps / 48 kHz
Формат субтитров: softsub (SRT)
Доп. информация о субтитрах: Русские (full), Английские (full)
x264 [info]: frame I:1047 Avg QP:16.53 size: 76417
x264 [info]: frame P:33794 Avg QP:20.48 size: 22921
x264 [info]: frame B:101110 Avg QP:22.66 size: 7100
General
Unique ID : 174293742632810472846768091527686823717 (0x831FC0F9671FEBE3A3CADC36143A9F25)
Complete name : I:\torrents\Сайлент Хилл 2 (2012) BDRip-AVC [Open Matte].mkv
Format : Matroska
Format version : Version 2
File size : 2.06 GiB
Duration : 1 h 34 min
Overall bit rate : 3 117 kb/s
Movie name : Сайлент Хилл 2 / Silent Hill: Revelation (2012) [Open Matte]
Encoded date : UTC 2018-12-24 10:05:44
Writing application : mkvmerge v5.5.0 ('Healer') built on Apr 24 2012 23:47:03
Writing library : libebml v1.2.3 + libmatroska v1.3.0
Cover : Yes
Attachments : Cover.jpg

Video
ID : 1
Format : AVC
Format/Info : Advanced Video Codec
Format profile : High@L3.1
Format settings : CABAC / 8 Ref Frames
Format settings, CABAC : Yes
Format settings, ReFrames : 8 frames
Codec ID : V_MPEG4/ISO/AVC
Duration : 1 h 34 min
Bit rate : 2 220 kb/s
Width : 1 120 pixels
Height : 630 pixels
Display aspect ratio : 16:9
Frame rate mode : Constant
Frame rate : 23.976 (24000/1001) FPS
Color space : YUV
Chroma subsampling : 4:2:0
Bit depth : 8 bits
Scan type : Progressive
Bits/(Pixel*Frame) : 0.131
Stream size : 1.43 GiB (69%)
Title : BDRip (AVC) / MPEG-4 AVC/H.264 / 2220 kbps / 1120x630 / 23.976 fps
Writing library : x264 core 146 r2538 121396c
Encoding settings : cabac=1 / ref=8 / deblock=1:0:0 / analyse=0x3:0x113 / me=umh / subme=10 / psy=1 / psy_rd=1.00:0.00 / mixed_ref=1 / me_range=32 / chroma_me=1 / trellis=2 / 8x8dct=1 / cqm=0 / deadzone=21,11 / fast_pskip=0 / chroma_qp_offset=-2 / threads=6 / lookahead_threads=1 / sliced_threads=0 / nr=0 / decimate=1 / interlaced=0 / bluray_compat=0 / constrained_intra=0 / bframes=9 / b_pyramid=2 / b_adapt=2 / b_bias=0 / direct=3 / weightb=1 / open_gop=0 / weightp=2 / keyint=250 / keyint_min=23 / scenecut=40 / intra_refresh=0 / rc_lookahead=50 / rc=2pass / mbtree=1 / bitrate=2220 / ratetol=1.0 / qcomp=0.60 / qpmin=0 / qpmax=69 / qpstep=4 / cplxblur=20.0 / qblur=0.5 / vbv_maxrate=14000 / vbv_bufsize=14000 / nal_hrd=none / filler=0 / ip_ratio=1.40 / aq=1:1.00
Language : English
Default : Yes
Forced : Yes

Audio #1
ID : 2
Format : AC-3
Format/Info : Audio Coding 3
Codec ID : A_AC3
Duration : 1 h 34 min
Bit rate mode : Constant
Bit rate : 448 kb/s
Channel(s) : 6 channels
Channel positions : Front: L C R, Side: L R, LFE
Sampling rate : 48.0 kHz
Frame rate : 31.250 FPS (1536 SPF)
Bit depth : 16 bits
Compression mode : Lossy
Stream size : 303 MiB (14%)
Title : DUB (Rus) / AC3 / 6 ch / 448 kbps / 48 kHz
Language : Russian
Service kind : Complete Main
Default : Yes
Forced : Yes

Audio #2
ID : 3
Format : AC-3
Format/Info : Audio Coding 3
Codec ID : A_AC3
Duration : 1 h 34 min
Bit rate mode : Constant
Bit rate : 448 kb/s
Channel(s) : 6 channels
Channel positions : Front: L C R, Side: L R, LFE
Sampling rate : 48.0 kHz
Frame rate : 31.250 FPS (1536 SPF)
Bit depth : 16 bits
Compression mode : Lossy
Stream size : 303 MiB (14%)
Title : Original (Eng) / AC3 / 6 ch / 448 kbps / 48 kHz
Language : English
Service kind : Complete Main
Default : No
Forced : No

Text #1
ID : 4
Format : UTF-8
Codec ID : S_TEXT/UTF8
Codec ID/Info : UTF-8 Plain Text
Title : Full (Rus) / S_TEXT/UTF8
Language : Russian
Default : No
Forced : No

Text #2
ID : 5
Format : UTF-8
Codec ID : S_TEXT/UTF8
Codec ID/Info : UTF-8 Plain Text
Title : Full [SDH] (Eng) / S_TEXT/UTF8
Language : English
Default : No
Forced : No

Menu
00:00:00.000 : :Chapter 01
00:04:41.490 : :Chapter 02
00:11:38.531 : :Chapter 03
00:17:09.612 : :Chapter 04
00:21:29.497 : :Chapter 05
00:24:04.485 : :Chapter 06
00:27:59.928 : :Chapter 07
00:31:28.011 : :Chapter 08
00:35:24.080 : :Chapter 09
00:40:50.239 : :Chapter 10
00:46:50.474 : :Chapter 11
00:50:35.282 : :Chapter 12
00:53:56.024 : :Chapter 13
00:57:47.673 : :Chapter 14
01:03:52.829 : :Chapter 15
01:06:30.445 : :Chapter 16
01:11:29.285 : :Chapter 17
01:16:35.299 : :Chapter 18
01:23:00.100 : :Chapter 19
01:27:21.069 : :Chapter 20
скриншот  скриншот  скриншот  
pb.wtf



Скачать Сайлент Хилл 2 через торрент https://i107.fastpic.ru/big/2018/1225/ae/07b272b346d1e1b7d84b64f900a0e1ae.png Скачать фильм Сайлент Хилл 2 через торрент бесплантно в хорошем качестве Описание: Хизер терзается ночными кошмарами с одиннадцатилетнего возраста и вынуждена со своим отцом постоянно менять место жительства, ... 10 10 2
Торрент: Зарегистрирован [2019-01-01 13:02] · скачан: 54 раз
Статус: √ проверено
Размер: 2.06 GB
Как cкачать? Как скачать Сайлент Хилл 2 через торрент | qTorrent

% Раздел Тема Автор DL S | L
Фильмы 2012 [ 1.45 GB ] Сайлент Хилл 2 / Silent Hill: Revelation [2012 HDRip] DUB |лицензия| NarutoSasuke Скачать
1 | 0
3D Фильмы [ 10.66 GB ] Сайлент Хилл 2 3D / Silent Hill: Revelation 3D [2012 BDRip 1080p] 3D Half-SBS diletant Скачать
1 | 0
Фильмы [HD 720p, 1080p] (Хороший звук DUB, MVO) [ 4.67 GB ] Сайлент Хилл 2 / Silent Hill: Revelation 3D [2012 BDRip 720p] diletant Скачать
1 | 0
Фильмы (DVD фильмы) [ 7.15 GB ] Сайлент Хилл 2 / Silent Hill: Revelation [2012 DVD9] R5 voovaz Скачать
1 | 0
Официальные cаундтреки к зарубежным фильмам [ 115 MB ] Сайлент Хилл 2 / Silent Hill: Revelation 3D 2012 / MP3 / VBR 192-320 kbps / Score merik Скачать
1 | 0

28-11-2019 20:33  

Отключить всю рекламу на сайте

    Дорогой пользователь! Огромная просьба, поблагодарите релизера, оцените раздачу и оставьте свои комментарий, если Вы скачали Сайлент Хилл 2 через торрент бесплатно! Внесите свою лепту в развитие PiratBit!
    Комментировать посты могут только пользователи прошедшие не сложную регистрацию
    Показать сообщения:    

    Сайлент Хилл 2 через торрент
    Скачать бесплатно Сайлент Хилл 2
    Сайлент Хилл 2 скачать торрент
    Сайлент Хилл 2 смотреть онлайн
    Cкачать фильм Сайлент Хилл 2 бесплатно
    Сайлент Хилл 2 скачать торрент в хорошем качестве
    Сайлент Хилл 2 смотреть онлайн бесплатно в хорошем качестве


    Вы не можете начинать темы
    Вы не можете отвечать на сообщения
    Вы не можете редактировать свои сообщения
    Вы не можете удалять свои сообщения
    Вы не можете голосовать в опросах
    Вы не можете прикреплять файлы к сообщениям
    Вы можете скачивать файлы