Marvel's Avengers Deluxe Edition (супер цена) 159р. Внимание количество ограничено!!!

2 сезон

iTunes

iTunes

1

iTunes

iTunes

iTunes

WEBRip

iTunes

30
pack

Новость дня

ВАЖНО

!!Акция!!

Alien_RageХит недели

RePack

Horizon Zero Dawn

ИГРА 18+

pack

RePack

jed

!!Акция!!

Alien_Rage

RePack

fifa19

RePack

Assassins Creed: Odyssey

RePack

NEED FOR SPEED™ PAYBACK

4 сезон

9 сезон

Бесстыжие 9 сезон

Все сериалы

все сериалы на PB.wtf

RePack

FAR CRY 5
  

Секреты моей падчерицы / Secrets of My Stepdaughter (Джем Гаррард) [2017, триллер, HDTVRip 720p] MVO ["Синема УС"] pb.wtf

Секреты моей падчерицы через торрент pb.wtf

Размер: 2.89 GB | Добавлен: 1 год 8 мес. назад | Торрент скачан:29 раз
Скачать  

01-01-2019 14:09 Секреты моей падчерицы Скачать торрент  

Секреты моей падчерицы / Secrets of My StepdaughterГод выпуска: 2017
Страна: Канада
Жанр: триллер
Продолжительность: 01:25:06
Перевод: Любительский (многоголосый) | "Синема УС"
Субтитры: отсутствуют

Режиссер: Джем Гаррард

rating

В ролях:

Джози Дэвис, Тиера Сковбай, Камерон Бэнкрофт, Алиса Сковбай, Люсия Уолтерс, Гари Чок, Нэнси Сивак, Вероника Хадрава, Мехи Арджун Фестер, Джаред Аджер-Фостер

Описание:

Синди выживает во время ограбления, в котором убивают её подругу. Девушка травмирована и её приёмная мать всеми силами пытается помочь ей. Однако, со временем, женщина начинает замечать, что в рассказе её падчерицы есть нестыковки, и, возможно, она что-то скрывает.

Качество: HDTVRip 720p
Формат: MKV

Видео: h.264,4 471 kb/s, 1280x720
Аудио#1: Русский, (AC3, 2 ch, 384 Кбит/с)
скриншот  скриншот  скриншот  

Общее
Уникальный идентификатор : 180455808346538110106454726127431777439 (0x87C2864531B92879A44F637FD1D0FC9F)
Полное имя : D:\secrets.of.my.stepdaughter.2017.P.HDTV.72Op_KOSHARA.mkv
Формат : Matroska
Версия формата : Version 2
Размер файла : 2,89 Гбайт
Продолжительность : 1 ч. 25 м.
Режим общего битрейта : Переменный
Общий поток : 4857 Кбит/сек
Дата кодирования : UTC 2018-12-31 12:44:42
Программа кодирования : mkvmerge v8.3.0 ('Over the Horizon') 64bit
Библиотека кодирования : libebml v1.3.1 + libmatroska v1.4.2

Видео
Идентификатор : 1
Формат : AVC
Формат/Информация : Advanced Video Codec
Профиль формата : High@L4.1
Параметр CABAC формата : Да
Параметр RefFrames формата : 4 кадра
Идентификатор кодека : V_MPEG4/ISO/AVC
Продолжительность : 1 ч. 25 м.
Вид битрейта : Переменный
Битрейт : 4471 Кбит/сек
Максимальный битрейт : 5000 Кбит/сек
Ширина : 1280 пикселей
Высота : 720 пикселей
Соотношение сторон : 16:9
Режим частоты кадров : Постоянный
Частота кадров : 23,976 (24000/1001) кадра/сек
Стандарт вещания : Component
Цветовое пространство : YUV
Субдискретизация насыщенности : 4:2:0
Битовая глубина : 8 бит
Тип развёртки : Прогрессивная
Бит/(Пиксели*Кадры) : 0.198
Размер потока : 2,60 Гбайт (90%)
Default : Да
Forced : Нет
Цветовой диапазон : Limited
Основные цвета : BT.709
Характеристики трансфера : BT.709
Коэффициенты матрицы : BT.709

Аудио
Идентификатор : 2
Формат : AC-3
Формат/Информация : Audio Coding 3
Расширение режима : CM (complete main)
Параметр Endianness формата : Big
Идентификатор кодека : A_AC3
Продолжительность : 1 ч. 25 м.
Вид битрейта : Постоянный
Битрейт : 384 Кбит/сек
Каналы : 2 канала
Расположение каналов : Front: L R
Частота : 48,0 КГц
Частота кадров : 31,250 кадров/сек (1536 spf)
Метод сжатия : С потерями
Размер потока : 234 Мбайт (8%)
Default : Да
Forced : Нет

pb.wtf



Скачать Секреты моей падчерицы через торрент https://a.radikal.ru/a06/1901/b8/bdf612878e95.jpg Скачать фильм Секреты моей падчерицы через торрент бесплантно в хорошем качестве Описание: Синди выживает во время ограбления, в котором убивают её подругу. Девушка травмирована и её приёмная мать всеми силами пытается ... 7 10 3
Торрент: Зарегистрирован [2019-01-01 14:09] · скачан: 29 раз
Статус: T временная
Размер: 2.89 GB
Как cкачать? Как скачать Секреты моей падчерицы через торрент | qTorrent

% Раздел Тема Автор DL S | L
T Фильмы (мультфильмы) cо спонсором показа (Новинки AVI/MKV) [ 1.37 GB ] Секреты моей падчерицы / Secrets of My Stepdaughter [2017 HDTVRip] MVO ["Синема УС"] bober100 Скачать
1 | 0

28-11-2019 20:33  

Отключить всю рекламу на сайте

    Дорогой пользователь! Огромная просьба, поблагодарите релизера, оцените раздачу и оставьте свои комментарий, если Вы скачали Секреты моей падчерицы через торрент бесплатно! Внесите свою лепту в развитие PiratBit!
    Комментировать посты могут только пользователи прошедшие не сложную регистрацию
    Показать сообщения:    

    Секреты моей падчерицы через торрент
    Скачать бесплатно Секреты моей падчерицы
    Секреты моей падчерицы скачать торрент
    Секреты моей падчерицы смотреть онлайн
    Cкачать фильм Секреты моей падчерицы бесплатно
    Секреты моей падчерицы скачать торрент в хорошем качестве
    Секреты моей падчерицы смотреть онлайн бесплатно в хорошем качестве


    Вы не можете начинать темы
    Вы не можете отвечать на сообщения
    Вы не можете редактировать свои сообщения
    Вы не можете удалять свои сообщения
    Вы не можете голосовать в опросах
    Вы не можете прикреплять файлы к сообщениям
    Вы можете скачивать файлы