Ссылка на приватное зеркало всего за 1$. Внимание количество ограничено!!!

OK

1+1

iTunes

мы

OK

1

WEB-DLRip

Джокер

Пифагор

Ведьмак / The Witcher сериал

Лицензия

ПШазам

ОК

Оно 2

iTunes

30
pack

Вам бонус

ВАЖНО

!!Акция!!

Alien_RageХит недели

RePack

Resident Evil 21

ИГРА 18+

pack

RePack

jed

!!Акция!!

Alien_Rage

RePack

fifa19

RePack

Assassins Creed: Odyssey

RePack

NEED FOR SPEED™ PAYBACK

4 сезон

9 сезон

Бесстыжие 9 сезон

Все сериалы

все сериалы на PB.wtf

RePack

FAR CRY 5
  

Руководство по выживанию для комиков / The Comedian's Guide to Survival (Марк Мерфи) [2016, комедия, WEB-DL 720p] MVO ["Синема УС"] pb.wtf

Руководство по выживанию для комиков через торрент pb.wtf

Размер: 3.68 GB | Добавлен: 1 год назад | Торрент скачан:14 раз
Скачать  

01-01-2019 14:25 Руководство по выживанию для комиков Скачать торрент  

Руководство по выживанию для комиков / The Comedian's Guide to Survival Год выпуска: 2016
Страна: США
Жанр: комедия
Продолжительность: 01:38:26
Перевод: Любительский (многоголосый) | "Синема УС"
Субтитры: отсутствуют

Режиссер: Марк Мерфи

rating

В ролях:

Джеймс Бакли, Пол Кэй, Кевин Элдон, МайАнна Бёринг, Марк Хип, Вэс Блэквуд, Джеймс Маллинджер, Джааль Хартли, Клер Бакли, Тим МакИннерни

Описание:

Стенд-ап комик-неудачник Джеймс Маллинджер находится на распутье. Никто не хочет смотреть на его выступления, жена сыта им по горло, а босс ставит ультиматум - либо пойти на повышение и бросить стенд-ап, либо остаться верным комедии и потерять работу. Вдобавок его посылают в Лос-Анджелес провести ряд интервью со звездами комедии, в результате которых огонек страсти к выступлениям вновь разгорается в сердце главного героя.

Качество: WEB-DL 720p
Формат: MKV

Видео: h.264, 4 967 kb/s, 1280x536
Аудио#1: Русский, (AC3, 2 ch, 384 Кбит/с)
скриншот  скриншот  скриншот  

Общее
Уникальный идентификатор : 179290968122686004645523970410083156066 (0x86E22F369454C483962BC71E0D468062)
Полное имя : D:\The.Comedians.Guide.to.Survival.2016.P.WEB-DL.72Op_KOSHARA.mkv
Формат : Matroska
Версия формата : Version 2
Размер файла : 3,68 Гбайт
Продолжительность : 1 ч. 38 м.
Режим общего битрейта : Переменный
Общий поток : 5352 Кбит/сек
Дата кодирования : UTC 2018-12-31 11:05:51
Программа кодирования : mkvmerge v8.3.0 ('Over the Horizon') 64bit
Библиотека кодирования : libebml v1.3.1 + libmatroska v1.4.2

Видео
Идентификатор : 1
Формат : AVC
Формат/Информация : Advanced Video Codec
Профиль формата : High@L4.1
Параметр CABAC формата : Да
Параметр RefFrames формата : 4 кадра
Идентификатор кодека : V_MPEG4/ISO/AVC
Продолжительность : 1 ч. 38 м.
Вид битрейта : Переменный
Битрейт : 4967 Кбит/сек
Максимальный битрейт : 5500 Кбит/сек
Ширина : 1280 пикселей
Высота : 536 пикселей
Соотношение сторон : 2,40:1
Режим частоты кадров : Постоянный
Частота кадров : 23,976 (24000/1001) кадра/сек
Стандарт вещания : Component
Цветовое пространство : YUV
Субдискретизация насыщенности : 4:2:0
Битовая глубина : 8 бит
Тип развёртки : Прогрессивная
Бит/(Пиксели*Кадры) : 0.296
Размер потока : 3,34 Гбайт (91%)
Default : Да
Forced : Нет
Цветовой диапазон : Limited
Основные цвета : BT.709
Характеристики трансфера : BT.709
Коэффициенты матрицы : BT.709

Аудио
Идентификатор : 2
Формат : AC-3
Формат/Информация : Audio Coding 3
Расширение режима : CM (complete main)
Параметр Endianness формата : Big
Идентификатор кодека : A_AC3
Продолжительность : 1 ч. 38 м.
Вид битрейта : Постоянный
Битрейт : 384 Кбит/сек
Каналы : 2 канала
Расположение каналов : Front: L R
Частота : 48,0 КГц
Частота кадров : 31,250 кадров/сек (1536 spf)
Метод сжатия : С потерями
Размер потока : 270 Мбайт (7%)
Default : Да
Forced : Нет

pb.wtf



Скачать Руководство по выживанию для комиков через торрент https://d.radikal.ru/d13/1901/6c/78edc50cac6a.jpg Скачать фильм Руководство по выживанию для комиков через торрент бесплантно в хорошем качестве Описание: Стенд-ап комик-неудачник Джеймс Маллинджер находится на распутье. Никто не хочет смотреть на его выступления, жена сыта им по ... 10 10 2
Торрент: Зарегистрирован [2019-01-01 14:25] · скачан: 14 раз
Статус: T временная
Размер: 3.68 GB
Как cкачать? Как скачать Руководство по выживанию для комиков через торрент | qTorrent

28-11-2019 20:33  

Отключить всю рекламу на сайте

    Дорогой пользователь! Огромная просьба, поблагодарите релизера, оцените раздачу и оставьте свои комментарий, если Вы скачали Руководство по выживанию для комиков через торрент бесплатно! Внесите свою лепту в развитие PiratBit!
    Комментировать посты могут только пользователи прошедшие не сложную регистрацию
    Показать сообщения:    

    Руководство по выживанию для комиков через торрент
    Скачать бесплатно Руководство по выживанию для комиков
    Руководство по выживанию для комиков скачать торрент
    Руководство по выживанию для комиков смотреть онлайн
    Cкачать фильм Руководство по выживанию для комиков бесплатно
    Руководство по выживанию для комиков скачать торрент в хорошем качестве
    Руководство по выживанию для комиков смотреть онлайн бесплатно в хорошем качестве


    Вы не можете начинать темы
    Вы не можете отвечать на сообщения
    Вы не можете редактировать свои сообщения
    Вы не можете удалять свои сообщения
    Вы не можете голосовать в опросах
    Вы не можете прикреплять файлы к сообщениям
    Вы можете скачивать файлы