Ссылка на приватное зеркало всего за 1$. Внимание количество ограничено!!!

iTunes

iTunes

iTunes

1

iTunes

iTunes

iTunes

WEBRip

iTunes

30
pack

$ от Little Big

ВАЖНО

!!Акция!!

Alien_RageХит недели

RePack

Resident Evil 21

ИГРА 18+

pack

RePack

jed

!!Акция!!

Alien_Rage

RePack

fifa19

RePack

Assassins Creed: Odyssey

RePack

NEED FOR SPEED™ PAYBACK

4 сезон

9 сезон

Бесстыжие 9 сезон

Все сериалы

все сериалы на PB.wtf

RePack

FAR CRY 5
  

Грабеж гробницы / Dao Mu Xun Long / Tomb Hunting (Юэ Шилун) [2018, Приключения, WEB-DL 720p] MVO [КОЛОБОК] pb.wtf

Грабеж гробницы через торрент pb.wtf

Размер: 2.69 GB | Добавлен: 1 год 7 мес. назад | Торрент скачан:113 раз
Скачать  

01-01-2019 14:56 Грабеж гробницы Скачать торрент  

Грабеж гробницы / Dao Mu Xun Long / Tomb Hunting Год выпуска: 2018
Страна: Китай
Жанр: Приключения
Продолжительность: 01:08:46
Перевод: Любительский (многоголосый) | КОЛОБОК
Субтитры: отсутствуют

Режиссер: Юэ Шилун

rating

В ролях:

Шон Хэ, Гу Фэн, Пи Ицзя, Ян Цзинъюй, Юань Шу

Описание:

Очередная группа китайских авантюристов, вдохновлённых приключениями Лары Крофт, отправляется на поиски легендарной гробницы битком набитой сокровищами древнекитайских царей.

Качество: WEB-DL 720p
Формат: MKV

Видео: h.264, 5 206 Кбит/с, 1280x534
Аудио#1: Русский, (AC3, 2 ch, 384 Кбит/с)
скриншот  скриншот  скриншот  

Общее
Уникальный идентификатор : 223925330121232875052566789652754111883 (0xA8767329F10C5933830E3A29A7F69D8B)
Полное имя : D:\Tomb.hunting.2018.Pk.WEB-DL.72Op.mkv
Формат : Matroska
Версия формата : Version 2
Размер файла : 2,69 Гбайт
Продолжительность : 1 ч. 8 м.
Режим общего битрейта : Переменный
Общий поток : 5592 Кбит/сек
Дата кодирования : UTC 2018-12-30 19:05:07
Программа кодирования : mkvmerge v8.3.0 ('Over the Horizon') 64bit
Библиотека кодирования : libebml v1.3.1 + libmatroska v1.4.2

Видео
Идентификатор : 1
Формат : AVC
Формат/Информация : Advanced Video Codec
Профиль формата : High@L4.1
Параметр CABAC формата : Да
Параметр RefFrames формата : 4 кадра
Идентификатор кодека : V_MPEG4/ISO/AVC
Продолжительность : 1 ч. 8 м.
Вид битрейта : Переменный
Битрейт : 5206 Кбит/сек
Максимальный битрейт : 6000 Кбит/сек
Ширина : 1280 пикселей
Высота : 534 пикселя
Соотношение сторон : 2,40:1
Режим частоты кадров : Постоянный
Частота кадров : 23,976 (24000/1001) кадра/сек
Стандарт вещания : Component
Цветовое пространство : YUV
Субдискретизация насыщенности : 4:2:0
Битовая глубина : 8 бит
Тип развёртки : Прогрессивная
Бит/(Пиксели*Кадры) : 0.311
Размер потока : 2,45 Гбайт (91%)
Default : Да
Forced : Нет
Цветовой диапазон : Limited
Основные цвета : BT.709
Характеристики трансфера : BT.709
Коэффициенты матрицы : BT.709

Аудио
Идентификатор : 2
Формат : AC-3
Формат/Информация : Audio Coding 3
Расширение режима : CM (complete main)
Параметр Endianness формата : Big
Идентификатор кодека : A_AC3
Продолжительность : 1 ч. 8 м.
Вид битрейта : Постоянный
Битрейт : 384 Кбит/сек
Каналы : 2 канала
Расположение каналов : Front: L R
Частота : 48,0 КГц
Частота кадров : 31,250 кадров/сек (1536 spf)
Метод сжатия : С потерями
Размер потока : 189 Мбайт (7%)
Default : Да
Forced : Нет

pb.wtf



Скачать Грабеж гробницы через торрент https://a.radikal.ru/a10/1901/20/6a2f53d0137b.jpg Скачать фильм Грабеж гробницы через торрент бесплантно в хорошем качестве Описание: Очередная группа китайских авантюристов, вдохновлённых приключениями Лары Крофт, отправляется на поиски легендарной гробницы ... 8.4 10 7
Торрент: Зарегистрирован [2019-01-01 14:56] · скачан: 113 раз
Статус: T временная
Размер: 2.69 GB
Как cкачать? Как скачать Грабеж гробницы через торрент | qTorrent

% Раздел Тема Автор DL S | L
T Фильмы (мультфильмы) cо спонсором показа (Новинки AVI/MKV) [ 1.37 GB ] Грабеж гробницы / Dao Mu Xun Long / Tomb Hunting [2018 WEB-DLRip] MVO [КОЛОБОК] bober100 Скачать
1 | 0

28-11-2019 20:33  

Отключить всю рекламу на сайте

02-01-2019 14:38 Грабеж гробницы Скачать торрент  

оригинальный треш.. чего только стоит умопомрачительня графика конца 80..хpb.wtf



    Дорогой пользователь! Огромная просьба, поблагодарите релизера, оцените раздачу и оставьте свои комментарий, если Вы скачали Грабеж гробницы через торрент бесплатно! Внесите свою лепту в развитие PiratBit!
    Комментировать посты могут только пользователи прошедшие не сложную регистрацию
    Показать сообщения:    

    Грабеж гробницы через торрент
    Скачать бесплатно Грабеж гробницы
    Грабеж гробницы скачать торрент
    Грабеж гробницы смотреть онлайн
    Cкачать фильм Грабеж гробницы бесплатно
    Грабеж гробницы скачать торрент в хорошем качестве
    Грабеж гробницы смотреть онлайн бесплатно в хорошем качестве


    Вы не можете начинать темы
    Вы не можете отвечать на сообщения
    Вы не можете редактировать свои сообщения
    Вы не можете удалять свои сообщения
    Вы не можете голосовать в опросах
    Вы не можете прикреплять файлы к сообщениям
    Вы можете скачивать файлы