Ссылка на приватное зеркало нашего сайта всего за 1$. Внимание количество ограничено!!!

2 сезон

iTunes

iTunes

1

iTunes

iTunes

iTunes

WEBRip

iTunes

30
pack

Забери бонус

ВАЖНО

!!Акция!!

Alien_RageХит недели

RePack

RESIDENT EVIL 3: NEMESIS REMAKE

ИГРА 18+

pack

RePack

jed

!!Акция!!

Alien_Rage

RePack

fifa19

RePack

Assassins Creed: Odyssey

RePack

NEED FOR SPEED™ PAYBACK

4 сезон

9 сезон

Бесстыжие 9 сезон

Все сериалы

все сериалы на PB.wtf

RePack

FAR CRY 5
  

Первое января / Primero De Enero (Эрика Баньярелло) [2014, драма, семейный, WEB-DL 720p] MVO ["Синема УС"] pb.wtf

Первое января через торрент pb.wtf

Размер: 2.94 GB | Добавлен: 1 год 9 мес. назад | Торрент скачан:26 раз
Скачать  

01-01-2019 15:11 Первое января Скачать торрент  

Первое января / Primero De EneroГод выпуска: 2014
Страна: Доминикана
Жанр: драма, семейный
Продолжительность: 01:27:38
Перевод: Любительский (многоголосый) | "Синема УС"
Субтитры: отсутствуют

Режиссер: Эрика Баньярелло

rating

В ролях:

Маркос Бонетти, Карлос Баез, Мануэль Шапсо, Химена Дуке, Паула Ферри, Хемки Мадера, Марио Пегеро, Виктор Хосе Пинтор, Вилли Роман, Эктор Соберон

Описание:

Себастиан отправляется в путешествие с друзьями по Доминиканской Респубике, чтобы найти украденное пианино отца.

Качество: WEB-DL 720p
Формат: MKV

Видео: h.264,4 415 kb/s, 1280x720
Аудио#1: Русский, (AC3, 2 ch, 384 Кбит/с)
скриншот  скриншот  скриншот  

Общее
Уникальный идентификатор : 243943188258159956599748974271080077474 (0xB785BFC4FD434D14B4CCE46F751E98A2)
Полное имя : D:\Primero.De.Enero.2014.P.WEB-DL.72Op_KOSHARA.mkv
Формат : Matroska
Версия формата : Version 2
Размер файла : 2,94 Гбайт
Продолжительность : 1 ч. 27 м.
Режим общего битрейта : Переменный
Общий поток : 4801 Кбит/сек
Дата кодирования : UTC 2018-12-30 18:23:20
Программа кодирования : mkvmerge v8.3.0 ('Over the Horizon') 64bit
Библиотека кодирования : libebml v1.3.1 + libmatroska v1.4.2

Видео
Идентификатор : 1
Формат : AVC
Формат/Информация : Advanced Video Codec
Профиль формата : High@L4.1
Параметр CABAC формата : Да
Параметр RefFrames формата : 4 кадра
Идентификатор кодека : V_MPEG4/ISO/AVC
Продолжительность : 1 ч. 27 м.
Вид битрейта : Переменный
Битрейт : 4415 Кбит/сек
Максимальный битрейт : 5000 Кбит/сек
Ширина : 1280 пикселей
Высота : 720 пикселей
Соотношение сторон : 16:9
Режим частоты кадров : Постоянный
Частота кадров : 23,976 (24000/1001) кадра/сек
Стандарт вещания : Component
Цветовое пространство : YUV
Субдискретизация насыщенности : 4:2:0
Битовая глубина : 8 бит
Тип развёртки : Прогрессивная
Бит/(Пиксели*Кадры) : 0.196
Размер потока : 2,64 Гбайт (90%)
Default : Да
Forced : Нет
Цветовой диапазон : Limited
Основные цвета : BT.709
Характеристики трансфера : BT.709
Коэффициенты матрицы : BT.709

Аудио
Идентификатор : 2
Формат : AC-3
Формат/Информация : Audio Coding 3
Расширение режима : CM (complete main)
Параметр Endianness формата : Big
Идентификатор кодека : A_AC3
Продолжительность : 1 ч. 27 м.
Вид битрейта : Постоянный
Битрейт : 384 Кбит/сек
Каналы : 2 канала
Расположение каналов : Front: L R
Частота : 48,0 КГц
Частота кадров : 31,250 кадров/сек (1536 spf)
Метод сжатия : С потерями
Размер потока : 241 Мбайт (8%)
Default : Да
Forced : Нет

pb.wtf



Скачать Первое января через торрент https://d.radikal.ru/d08/1901/24/b7b7d3b53542.jpg Скачать фильм Первое января через торрент бесплантно в хорошем качестве Описание: Себастиан отправляется в путешествие с друзьями по Доминиканской Респубике, чтобы найти украденное пианино ... 10 10 3
Торрент: Зарегистрирован [2019-01-01 15:11] · скачан: 26 раз
Статус: T временная
Размер: 2.94 GB
Как cкачать? Как скачать Первое января через торрент | qTorrent

% Раздел Тема Автор DL S | L
T Фильмы (мультфильмы) cо спонсором показа (Новинки AVI/MKV) [ 1.37 GB ] Первое января / Primero De Enero [2014 WEB-DLRip] MVO ["Синема УС"] bober100 Скачать
1 | 0

28-11-2019 20:33  

Отключить всю рекламу на сайте

    Дорогой пользователь! Огромная просьба, поблагодарите релизера, оцените раздачу и оставьте свои комментарий, если Вы скачали Первое января через торрент бесплатно! Внесите свою лепту в развитие PiratBit!
    Комментировать посты могут только пользователи прошедшие не сложную регистрацию
    Показать сообщения:    

    Первое января через торрент
    Скачать бесплатно Первое января
    Первое января скачать торрент
    Первое января смотреть онлайн
    Cкачать фильм Первое января бесплатно
    Первое января скачать торрент в хорошем качестве
    Первое января смотреть онлайн бесплатно в хорошем качестве


    Вы не можете начинать темы
    Вы не можете отвечать на сообщения
    Вы не можете редактировать свои сообщения
    Вы не можете удалять свои сообщения
    Вы не можете голосовать в опросах
    Вы не можете прикреплять файлы к сообщениям
    Вы можете скачивать файлы