Anonymous, добрый вечер, присоединяйтесь к нам в Telegram!, здесь всегда актуальный адрес сайта, оперативная поддержка и многое другое!

>

5.6

iTunes

7.4

MVO

5.7

MVO

1

7.7

1 сезон

6.8

iTunes

7.3

1 сезон

13

6.7

1 сезон

8.3

RePack

30

ULTIMATE

pack

9.9

Лицензия

ВАЖНО

ИГРА 18+

pack

7.3

RePack

MK11

7.7

RePack

jed

7.8

RePack

fifa19

8.5

RePack

RDR2

RePack

NEED FOR SPEED™ PAYBACK

4 сезон

9 сезон

Бесстыжие 9 сезон

Все сериалы

все сериалы на PB.wtf

RePack

FAR CRY 5

Anonymous, добрый вечер, мы катастрофически не успеваем собрать деньги на оплату серверов, помогите нам пожалуйста 5,10,15р., для нас важна любая помощь . В качестве благодарности мы отключим Вам всю рекламу на сайте (укажите свой ник в строку Ваше имя)!

×
  
Magnet ссылка

Вечерний квартал [113] [эфир от 31.12] [2018 г., Юмористическое шоу, концерт, сатира, WEBRip] pb.wtf

Смотреть онлайн Вечерний квартал | Скачать    Ребята, помогите собрать деньги на оплату серверов!!!

01-01-2019 15:38 Вечерний квартал Скачать торрент  

Вечерний квартал [113][эфир от 31.12]




Год выпуска: 2018

Жанр: Юмористическое шоу, концерт, сатира

Выпущено: Украина, Студия 95 квартал

Режиссер: Студия 95 квартал

Продолжительность: 02:48:56

Перевод: Не требуется

Cубтитры: нет

В ролях: Владимир Зеленский, Юрий Крапов, Денис Манжосов, Елена Кравец, Евгений Кошевой, Сергей Казанин, Александр Пикалов, Юрий Корявченков, Аркадий Лапухин

О фильме:

Однажды веселые ребята из "95-го квартала" решили отметить свой переезд из родного Кривого Рога в Киев, а заодно 10-летие команды новым шоу. Коллектив подобрался душевный, "с огоньком", гости - сплошь знаменитые, а столичная публика - щедрая на аплодисменты. Так родилась самая смешная и популярная передача на отечественном телевидении - "Вечерний квартал". Идея шоу проста: в городе N есть некий модный квартал, в котором тусуются девять смешных жителей. Остальные просто приходят к ним в гости. Правда, гости не совсем обычные: среди них встречаются и богатые, и знаменитые, политики, и дизайнеры, и поп-звезды. Главный критерий - наличие здорового чувства юмора. Без него - никак, так как гостей здесь встречают не хлебом-солью, а розыгрышами и подколками, а те в свою очередь участвуют в скетчах и исполняют музыкальные или танцевальные номера.




Качество видео: WEBRip

Формат видео: AVI

Видео: XviD build 73, 720x400 (16:9), 25.000 fps, 1639 Kbps (0.228 bit/pixel)

Аудио: 48.0 kHz, AC3, 2/0 ch, 192 kbps
С каремелькой за щекой - Новогоднее обращение Порошенко

Политический Блюз или Новый Год с Тимошенко, Кличко, Порошенко и Парубий

Сложные взаимоотношения с Дедом Морозом - Владимир Зеленский

Кома новогодних дней

Мужик после новогоднего корпоратива - политическое Дискавери

Певица года NK (Настя Каменских) в гостях у Новогоднего Вечернего Квартала 2019

Проводницы Гиперлупа vs Министр Инфраструктуры

Лучший подарок для женщины на Новый Год

Плохие шутки - Игорь Коломойский и Ренат Ахметов

Вокруг Света на Автобусе - Как ИЗГНАТЬ ДЬЯВОЛА Сидящего за Тобой

Петя и Юля - Дуэт ПЕТЮЛЯ

Тактика Поменялась - Голосуем ЗА Зеленского

Как MONATIK проходил кастинг на Танці з зірками

Как Новый Год встретишь, так его и проведешь - Валерий Жидков

Хоть какой-то смысл в законах Порошенко - Муж разводится с женой

Дуэль из-за бабы - Владимир Ленский vs Евгений Онегин

Потап и Настя feat. Бьянка - Стиль собачки (Новогодняя Пародия)

Секретный Шифр Братьев Кличко

Гуцульская Рапсодия - Дзідзьо и группа Queen

Женский стон без симуляции - Утро после корпоратива

Каминг-аут украинской власти - Новогодняя песня

скриншот  скриншот  скриншот  

General

Complete name : D:RazdachiVechernij.Kvartal.113.XviD.WEBRip.GeneralFilmKvartal.113.e01.avi

Format : AVI

Format/Info : Audio Video Interleave

File size : 1.11 GiB

Duration : 1 h 26 min

Overall bit rate : 1 841 kb/s

Writing application : VirtualDubMod 1.5.10.3 | www.virtualdub-fr.org || (build 2550/release)

Writing library : VirtualDubMod build 2550/release

Video

ID : 0

Format : MPEG-4 Visual

Format profile : Advanced Simple@L5

Format settings, BVOP : 1

Format settings, QPel : No

Format settings, GMC : No warppoints

Format settings, Matrix : Custom

Codec ID : XVID

Codec ID/Hint : XviD

Duration : 1 h 26 min

Bit rate : 1 639 kb/s

Width : 720 pixels

Height : 400 pixels

Display aspect ratio : 16:9

Frame rate : 25.000 FPS

Color space : YUV

Chroma subsampling : 4:2:0

Bit depth : 8 bits

Scan type : Progressive

Compression mode : Lossy

Bits/(Pixel*Frame) : 0.228

Stream size : 1 010 MiB (89%)

Writing library : XviD 73

Audio

ID : 1

Format : AC-3

Format/Info : Audio Coding 3

Format settings, Endianness : Big

Codec ID : 2000

Duration : 1 h 26 min

Bit rate mode : Constant

Bit rate : 192 kb/s

Channel(s) : 2 channels

Channel positions : Front: L R

Sampling rate : 48.0 kHz

Frame rate : 31.250 FPS (1536 SPF)

Bit depth : 16 bits

Compression mode : Lossy

Stream size : 118 MiB (10%)

Alignment : Split accross interleaves

Interleave, duration : 40 ms (1.00 video frame)

Interleave, preload duratio : 500 ms

Service kind : Complete Main
pb.wtf



28-11-2019 20:33  

Отключить всю рекламу на сайте

    Дорогой пользователь! Огромная просьба, поблагодарите релизера, оцените раздачу и оставьте свои комментарий, если Вы скачали Вечерний квартал через торрент бесплатно!
    Комментировать посты могут только пользователи прошедшие не сложную регистрацию
    Показать сообщения:    

    Вечерний квартал через торрент
    Скачать бесплатно Вечерний квартал
    Вечерний квартал скачать торрент
    Вечерний квартал смотреть онлайн
    Cкачать фильм Вечерний квартал бесплатно
    Вечерний квартал скачать торрент в хорошем качестве
    Вечерний квартал смотреть онлайн бесплатно в хорошем качестве


    Вы не можете начинать темы
    Вы не можете отвечать на сообщения
    Вы не можете редактировать свои сообщения
    Вы не можете удалять свои сообщения
    Вы не можете голосовать в опросах
    Вы не можете прикреплять файлы к сообщениям
    Вы не можете скачивать файлы