Ссылка на приватное зеркало всего за 1$. Внимание количество ограничено!!!

OK

1+1

iTunes

мы

OK

1

WEB-DLRip

Джокер

Пифагор

Ведьмак / The Witcher сериал

iTunes

ПШазам

ОК

Оно 2

iTunes

30
pack

Вам бонус

ВАЖНО

!!Акция!!

Alien_RageХит недели

RePack

Resident Evil 21

ИГРА 18+

pack

RePack

jed

RePack

fifa19

RePack

Assassins Creed: Odyssey

RePack

NEED FOR SPEED™ PAYBACK

4 сезон

9 сезон

Бесстыжие 9 сезон

Все сериалы

все сериалы на PB.wtf

RePack

FAR CRY 5
  

Врата / Geiteu / Gate (Щин Джэ-хо) [2018, комедия, криминал, WEB-DL 720p] MVO [КОЛОБОК] pb.wtf

Врата через торрент pb.wtf

Размер: 3.43 GB | Добавлен: 1 год назад | Торрент скачан:21 раз
Скачать  

01-01-2019 15:55 Врата Скачать торрент  

Врата / Geiteu / GateГод выпуска: 2018
Страна: Корея Южная
Жанр: комедия, криминал
Продолжительность: 01:33:20
Перевод: Любительский (многоголосый) | КОЛОБОК
Субтитры: отсутствуют

Режиссер: Щин Джэ-хо

rating

В ролях:

Им Чхан-джон, Чон Рё-вон, Ли Гён-ён, Чон Сан-хун, Ли Мун-щик, Чон Гён-сун, Сону Ын-сук, Лим Чхоль-хён, Ким До-хун, Ким Гён-рён

Описание:

Криминальный талант и организатор собирает команду из первоклассных специалистов своего дела - взломщика сейфов и мошенника-актера - чтобы провернуть ограбление, после которого можно уйти на покой и больше не беспокоиться о деньгах. Судьба сводит банду с потерявшим память в результате несчастного случая бывшим прокурором, что вносит сумбур в их криминальные планы.

Качество: WEB-DL 720p
Формат: MKV

Видео: h.264,4 878 Кбит/с, 1280x536
Аудио#1: Русский, (AC3, 2 ch, 384 Кбит/с)
скриншот  скриншот  скриншот  

Общее
Уникальный идентификатор : 193405364909322157075529280142350982681 (0x918084B3CA9EF216AA7CD09513EB9E19)
Полное имя : D:\Gate.2017.Pk.WEB-DL.72Op.mkv
Формат : Matroska
Версия формата : Version 2
Размер файла : 3,43 Гбайт
Продолжительность : 1 ч. 33 м.
Режим общего битрейта : Переменный
Общий поток : 5264 Кбит/сек
Дата кодирования : UTC 2018-12-30 17:32:15
Программа кодирования : mkvmerge v8.3.0 ('Over the Horizon') 64bit
Библиотека кодирования : libebml v1.3.1 + libmatroska v1.4.2

Видео
Идентификатор : 1
Формат : AVC
Формат/Информация : Advanced Video Codec
Профиль формата : High@L4.1
Параметр CABAC формата : Да
Параметр RefFrames формата : 4 кадра
Идентификатор кодека : V_MPEG4/ISO/AVC
Продолжительность : 1 ч. 33 м.
Вид битрейта : Переменный
Битрейт : 4878 Кбит/сек
Максимальный битрейт : 5500 Кбит/сек
Ширина : 1280 пикселей
Высота : 536 пикселей
Соотношение сторон : 2,40:1
Режим частоты кадров : Постоянный
Частота кадров : 23,976 (24000/1001) кадра/сек
Стандарт вещания : Component
Цветовое пространство : YUV
Субдискретизация насыщенности : 4:2:0
Битовая глубина : 8 бит
Тип развёртки : Прогрессивная
Бит/(Пиксели*Кадры) : 0.290
Размер потока : 3,11 Гбайт (91%)
Default : Да
Forced : Нет
Цветовой диапазон : Limited
Основные цвета : BT.709
Характеристики трансфера : BT.709
Коэффициенты матрицы : BT.709

Аудио
Идентификатор : 2
Формат : AC-3
Формат/Информация : Audio Coding 3
Расширение режима : CM (complete main)
Параметр Endianness формата : Big
Идентификатор кодека : A_AC3
Продолжительность : 1 ч. 33 м.
Вид битрейта : Постоянный
Битрейт : 384 Кбит/сек
Каналы : 2 канала
Расположение каналов : Front: L R
Частота : 48,0 КГц
Частота кадров : 31,250 кадров/сек (1536 spf)
Метод сжатия : С потерями
Размер потока : 256 Мбайт (7%)
Default : Да
Forced : Нет

pb.wtf



Скачать Врата через торрент https://b.radikal.ru/b11/1901/e5/c14e98729771.jpg Скачать фильм Врата через торрент бесплантно в хорошем качестве Описание: Криминальный талант и организатор собирает команду из первоклассных специалистов своего дела - взломщика сейфов и ... 7 10 3
Торрент: Зарегистрирован [2019-01-01 15:55] · скачан: 21 раз
Статус: T временная
Размер: 3.43 GB
Как cкачать? Как скачать Врата через торрент | qTorrent

% Раздел Тема Автор DL S | L
3D Фильмы [ 21.31 GB ] Врата воинов в 3Д / The Warriors Gate 3D [2016 BDRip 1080p] OverUnder / Вертикальная стереопара serega768 Скачать
2 | 0
3D Фильмы [ 12.47 GB ] Врата воинов 3Д / The Warriors Gate 3D [2016 BDRip 1080p ] MVO [@MUZOBOZ@] bober100 Скачать
2 | 0
T Фильмы (мультфильмы) cо спонсором показа (Новинки AVI/MKV) [ 1.37 GB ] Врата / Geiteu / Gate [2018 WEB-DLRip] MVO [КОЛОБОК] bober100 Скачать
1 | 0
Фильмы с авторской озвучкой [ 5.7 GB ] Врата 2: Нарушители / The Gate II: Trespassers [1990 BDRip 720p] 2 AVO [Гаврилов Визгунов] Леонид Ильич Скачать
1 | 0
Фильмы (WEB-DL 720p, 1080p) [ 480 MB ] Far Cry 5: У врат Эдема / Far Cry 5: Inside Eden's Gate [2018 короткометражка WEB-DLRip 1080p HEVC] MVO -Lexx- Скачать
1 | 0
R.G. Resident & PiratVoice - Фильмы, Видео [ 1.46 GB ] Дьявольские врата / Devil's Gate [2017 BDRip от R.G. Resident] MVO [Jaskier] -Lexx- Скачать
1 | 0
Фильмы (Blu-ray, BD-Remux, HDDVD) [ 18.31 GB ] Дьявольские врата / Devil's Gate [2017 BD Remux 1080p] MVO [Jaskier] bober100 Скачать
1 | 0

28-11-2019 20:33  

Отключить всю рекламу на сайте

    Дорогой пользователь! Огромная просьба, поблагодарите релизера, оцените раздачу и оставьте свои комментарий, если Вы скачали Врата через торрент бесплатно! Внесите свою лепту в развитие PiratBit!
    Комментировать посты могут только пользователи прошедшие не сложную регистрацию
    Показать сообщения:    

    Врата через торрент
    Скачать бесплатно Врата
    Врата скачать торрент
    Врата смотреть онлайн
    Cкачать фильм Врата бесплатно
    Врата скачать торрент в хорошем качестве
    Врата смотреть онлайн бесплатно в хорошем качестве


    Вы не можете начинать темы
    Вы не можете отвечать на сообщения
    Вы не можете редактировать свои сообщения
    Вы не можете удалять свои сообщения
    Вы не можете голосовать в опросах
    Вы не можете прикреплять файлы к сообщениям
    Вы можете скачивать файлы