Ссылка на приватное зеркало всего за 1$. Внимание количество ограничено!!!

iTunes

1+1

iTunes

мы

WEB-DL

1

iTunes

Чернобыль

iTunes

Ральф против интернета

Лицензия

ПШазам

Лицензия

Оно 2

Лицензия

30
pack

Вам бонус

ВАЖНО

!!Акция!!

Alien_RageХит недели

RePack

Resident Evil 21

ИГРА 18+

pack

RePack

jed

!!Акция!!

Alien_Rage

RePack

fifa19

RePack

Assassins Creed: Odyssey

RePack

NEED FOR SPEED™ PAYBACK

3 сезон

9 сезон

Бесстыжие 9 сезон

Все сериалы

все сериалы на PB.wtf

RePack

FAR CRY 5
Ребята, катастрофически не хватает 1900р. для оплаты серверов за Октябрь (всвязи с блокировками трафик упал в 3 раза), 1-2р., выручайте.
  

Проводник (Илья Максимов) [2018, ужасы, триллер, WEB-DLRip-AVC] [iTunes] pb.wtf

Проводник через торрент pb.wtf

Раздают: 1 [ 0 KB/s ]
Размер: 1.28 GB | Добавлен: 11 мес. назад | Торрент скачан:300 раз
Скачать  

01-01-2019 16:29 Проводник Скачать торрент  

Проводник Год выпуска: 2018
Страна: Россия
Жанр: ужасы, триллер
Продолжительность: 01:26:18
Перевод: Не требуется | iTunes
Субтитры: отсутствуют

Режиссер: Илья Максимов

rating

В ролях:

Александра Бортич, Евгений Цыганов, Александр Робак, Вячеслав Разбегаев, Владимир Яглыч, Константин Мурзенко, Юрий Скулябин, Марта Тимофеева, Екатерина Рокотова, Василий Бочкарев

Описание:

Главная героиня, девушка Катя, обладает мистическим даром: она видит призраков. Когда пропадает её сестра-близнец, девушка в одиночку бросается на поиски. В полиции настаивают, что сестры вообще не существует, что она - плод Катиного больного воображения. Однако в процессе поисков сестры Катя понимает, что в городе орудует серийный маньяк, и сестра - одна из его жертв. Еще есть надежда спасти ее, но в мрачном, полном тайн городе нельзя доверять никому, даже самой себе...

Качество: WEB-DLRip-AVC
Формат: MKV

Видео: MPEG-4 AVC, 1738 Кбит/с, 1024x428, 25 кадр/с
Аудио: Русский (AC3, 6 ch, 384 Кбит/с)
скриншот  скриншот  скриншот  скриншот  скриншот  

Общее
Уникальный идентификатор : 248198390069028778149133909225360097706 (0xBAB9456AA0C6868897521E23C53081AA)
Полное имя : D:ЗагрузкиProvodnik.2018.WEB.DLRip.(AVC).OlLanDGroup.mkv
Формат : Matroska
Версия формата : Version 4 / Version 2
Размер файла : 1,28 Гбайт
Продолжительность : 1 ч. 26 м.
Общий поток : 2122 Кбит/сек
Название фильма : Проводник.2018.Rip by: ollan
Дата кодирования : UTC 2019-01-01 16:01:25
Программа кодирования : mkvmerge v6.5.0 ('Isn't she lovely') built on Oct 20 2013 12:50:05
Библиотека кодирования : libebml v1.3.0 + libmatroska v1.4.1
Обложка : Yes
Attachments : Cover - Provodnik.png

Видео
Идентификатор : 1
Формат : AVC
Формат/Информация : Advanced Video Codec
Профиль формата : High@L4.1
Настройки формата : CABAC / 10 Ref Frames
Параметр CABAC формата : Да
Параметр ReFrames формата : 10 кадров
Идентификатор кодека : V_MPEG4/ISO/AVC
Продолжительность : 1 ч. 26 м.
Битрейт : 1738 Кбит/сек
Ширина : 1024 пикселя
Высота : 428 пикселей
Соотношение сторон : 2,40:1
Режим частоты кадров : Постоянный
Частота кадров : 25,000 кадров/сек
Цветовое пространство : YUV
Субдискретизация насыщенности : 4:2:0
Битовая глубина : 8 бит
Тип развёртки : Прогрессивная
Бит/(Пиксели*Кадры) : 0.159
Размер потока : 1,02 Гбайт (80%)
Библиотека кодирования : x264 core 146 r2538 121396c
Настройки программы : cabac=1 / ref=10 / deblock=1:-2:-3 / analyse=0x3:0x133 / me=umh / subme=11 / psy=1 / psy_rd=0.90:0.20 / mixed_ref=1 / me_range=64 / chroma_me=1 / trellis=2 / 8x8dct=1 / cqm=0 / deadzone=21,11 / fast_pskip=0 / chroma_qp_offset=-3 / threads=12 / lookahead_threads=3 / sliced_threads=0 / nr=0 / decimate=0 / interlaced=0 / bluray_compat=0 / constrained_intra=0 / bframes=10 / b_pyramid=2 / b_adapt=2 / b_bias=0 / direct=3 / weightb=1 / open_gop=0 / weightp=2 / keyint=250 / keyint_min=25 / scenecut=40 / intra_refresh=0 / rc_lookahead=40 / rc=2pass / mbtree=0 / bitrate=1738 / ratetol=1.0 / qcomp=0.60 / qpmin=0 / qpmax=69 / qpstep=4 / cplxblur=20.0 / qblur=0.5 / vbv_maxrate=50000 / vbv_bufsize=62500 / nal_hrd=none / filler=0 / ip_ratio=1.40 / pb_ratio=1.30 / aq=1:1.00
Язык : Russian
Default : Да
Forced : Нет

Аудио
Идентификатор : 2
Формат : AC-3
Формат/Информация : Audio Coding 3
Идентификатор кодека : A_AC3
Продолжительность : 1 ч. 26 м.
Вид битрейта : Постоянный
Битрейт : 384 Кбит/сек
Каналы : 6 каналов
Расположение каналов : Front: L C R, Side: L R, LFE
Частота : 48,0 КГц
Частота кадров : 31,250 кадров/сек (1536 SPF)
Битовая глубина : 16 бит
Метод сжатия : С потерями
Размер потока : 237 Мбайт (18%)
Язык : Russian
Service kind : Complete Main
Default : Да
Forced : Нет

Меню
00:00:00.000 : ru:Chapter 01
00:05:18.760 : ru:Chapter 02
00:11:59.000 : ru:Chapter 03
00:18:06.520 : ru:Chapter 04
00:26:13.960 : ru:Chapter 05
00:33:08.400 : ru:Chapter 06
00:41:30.160 : ru:Chapter 07
00:47:55.720 : ru:Chapter 08
00:55:33.760 : ru:Chapter 09
01:01:29.280 : ru:Chapter 10
01:07:41.280 : ru:Chapter 11
01:15:00.000 : ru:Chapter 12

pb.wtf



Скачать Проводник через торрент http://c.radikal.ru/c03/1901/5d/3b0bc91645e6.png Скачать фильм Проводник через торрент бесплантно в хорошем качестве Описание: Главная героиня, девушка Катя, обладает мистическим даром: она видит призраков. Когда пропадает её сестра-близнец, девушка в ... 10 10 7
Info! Золотая раздача, скачанное не засчитывается.
Торрент: Зарегистрирован [2019-01-01 16:29] · скачан: 300 раз
Статус: √ проверено
Размер: 1.28 GB
Как cкачать? Как скачать Проводник через торрент | qTorrent

% Раздел Тема Автор DL S | L
Зарубежные сериалы [ 17.18 GB ] Посредник / Проводник / The InBetween / Сезон: 1 / Серии: 1-10 из 10 [2019 WEB-DL 720p] MVO [TVShows] bober100 Скачать
1 | 0
Зарубежные сериалы [ 7.13 GB ] Посредник / Проводник / The InBetween / Сезон: 1 / Серии: 1-10 из 10 [2019 WEB-DLRip] MVO [TVShows] bober100 Скачать
1 | 0
Зарубежные сериалы [ 31.17 GB ] Посредник / Проводник / The InBetween / Сезон: 1 / Серии: 1-10 из 10 [2019 WEB-DL 1080p] MVO [TVShows] bober100 Скачать
1 | 0
Наши новые фильмы 2018-2019 [ 708 MB ] Проводник [2018 WEB-DLRip ] coc900 Скачать
2 | 0
Наши новые фильмы 2018-2019 [ 1.37 GB ] Проводник [2018 WEB-DLRip-AVC] - ExKinoRay Enigma2010 Скачать
1 | 0
Наши фильмы (HD, WEB-DL 720p, 1080p) [ 2.95 GB ] Проводник [2018 WEB-DL 1080p] bober100 Скачать
3 | 0
Наши новые фильмы 2018-2019 [ 1.46 GB ] Проводник [2018 WEB-DLRip] bober100 Скачать
5 | 0

28-11-2019 20:33  

Отключить всю рекламу на сайте

    Дорогой пользователь! Огромная просьба, поблагодарите релизера, оцените раздачу и оставьте свои комментарий, если Вы скачали Проводник через торрент бесплатно! Внесите свою лепту в развитие PiratBit!
    Комментировать посты могут только пользователи прошедшие не сложную регистрацию
    Показать сообщения:    

    Проводник через торрент
    Скачать бесплатно Проводник
    Проводник скачать торрент
    Проводник смотреть онлайн
    Cкачать фильм Проводник бесплатно
    Проводник скачать торрент в хорошем качестве
    Проводник смотреть онлайн бесплатно в хорошем качестве


    Вы не можете начинать темы
    Вы не можете отвечать на сообщения
    Вы не можете редактировать свои сообщения
    Вы не можете удалять свои сообщения
    Вы не можете голосовать в опросах
    Вы не можете прикреплять файлы к сообщениям
    Вы можете скачивать файлы