Ссылка на приватное зеркало всего за 1$. Внимание количество ограничено!!!

OK

1+1

iTunes

мы

OK

1

WEB-DLRip

Джокер

Пифагор

Ведьмак / The Witcher сериал

Лицензия

ПШазам

ОК

Оно 2

iTunes

30
pack

Вам бонус

ВАЖНО

!!Акция!!

Alien_RageХит недели

RePack

Resident Evil 21

ИГРА 18+

pack

RePack

jed

!!Акция!!

Alien_Rage

RePack

fifa19

RePack

Assassins Creed: Odyssey

RePack

NEED FOR SPEED™ PAYBACK

4 сезон

9 сезон

Бесстыжие 9 сезон

Все сериалы

все сериалы на PB.wtf

RePack

FAR CRY 5
  

Аксель / A-X-L (Оливер Дэйли) [2018, фантастика, боевик, приключения, BDRip 1080p] DUB [iTunes] pb.wtf

Аксель через торрент pb.wtf

Раздают: 4 [ 125 KB/s ]
Размер: 11.73 GB | Добавлен: 1 год назад | Торрент скачан:793 раза
Скачать  

01-01-2019 17:03 Аксель Скачать торрент  

Аксель / A-X-L
««Man's best friend has evolved»»

Год выпуска: 2018
Страна: США
Жанр: фантастика, боевик, приключения, семейный
Продолжительность: 01:38:36
Перевод: Дублированный [iTunes]
Субтитры: английские, английские (SDH)
Режиссер: Оливер Дэйли
В ролях:

Алекс Нюстадтер (Miles), Бекки Джи (Sara Reyes), Алекс МакНиколл (Sam Fontaine), Амин Наземзадех (Andric), Томас Джейн (Chuck Hill), Лу Тэйлор Пуччи (Randall), Патрисия де Леон (Joanna Reyes), Нико Гуардадо (Scroggins), Мари-Франсуа Теодор (Captain Webber), Тед МакГинли (George Fontaine), Мадлен Бертани (Lyssa), Эндрю Ортенберг (Royce)
Описание:
Юный мотоциклист Майлз случайно находит новую военную разработку - гигантскую собаку-робота по имени Аксель. Обладая искусственным интеллектом следующего поколения, но с огромным сердцем верного пса, Аксель быстро становится лучшим другом парня. Но военные не намерены просто так отказаться от металлического зверя, который превзошел в развитии их самые смелые ожидания. История настоящей дружбы и преданности вышла на новый технологический уровень, но вечные законы жизни остались прежними: ты всегда в ответе за тех, кого приручил.
Рейтинг:
rating
MPAA: PG - Рекомендуется присутствие родителей
Качество: BDRip 1080p
Формат: MKV
Видео: AVC, 1920x800 (2.40:1), 14803 kbps, 23,976 fps, 0,402 bpp
Аудио №1: русский / AC3 / 5.1 / 48 kHz / 384 kbps / |DUB|
Аудио №2: английский / DTS / 5.1 / 48 kHz / 1509 kbps / 24 bit
Навигация по главам: есть
General
Unique ID : 140580193234290137327620654695564658993 (0x69C2C2A7DAEB1CD1E2025A65E7AB4931)
Complete name : F:\A-X-L.2018.bdriP.1080p.werecut.PROD..mkv
Format : Matroska
Format version : Version 4 / Version 2
File size : 11.7 GiB
Duration : 1 h 38 min
Overall bit rate : 17.0 Mb/s
Movie name : A-X-L 2018 werecut PROD.
Encoded date : UTC 2019-01-01 14:01:40
Writing application : mkvmerge v24.0.0 ('Beyond The Pale') 64-bit
Writing library : libebml v1.3.6 + libmatroska v1.4.9

Video
ID : 1
Format : AVC
Format/Info : Advanced Video Codec
Format profile : High@L4.1
Format settings, CABAC : Yes
Format settings, ReFrames : 5 frames
Codec ID : V_MPEG4/ISO/AVC
Duration : 1 h 38 min
Bit rate : 14.8 Mb/s
Width : 1 920 pixels
Height : 800 pixels
Display aspect ratio : 2.40:1
Frame rate mode : Constant
Frame rate : 23.976 (24000/1001) FPS
Color space : YUV
Chroma subsampling : 4:2:0
Bit depth : 8 bits
Scan type : Progressive
Bits/(Pixel*Frame) : 0.402
Stream size : 10.2 GiB (87%)
Title : A-X-L 2018 1080p BluRay DTS x264-DON
Writing library : x264 core 157 r2867+103 0d6443f t_mod_Custom_2 [8-bit@all X86_64]
Encoding settings : cabac=1 / ref=5 / deblock=1:-3:-3 / analyse=0x3:0x133 / me=umh / subme=10 / psy=1 / fade_compensate=0.00 / psy_rd=1.00:0.00 / mixed_ref=1 / me_range=32 / chroma_me=1 / trellis=2 / 8x8dct=1 / cqm=0 / deadzone=21,11 / fast_pskip=0 / chroma_qp_offset=-2 / threads=12 / lookahead_threads=2 / sliced_threads=0 / nr=0 / decimate=0 / interlaced=0 / bluray_compat=0 / constrained_intra=0 / fgo=0 / bframes=8 / b_pyramid=2 / b_adapt=2 / b_bias=0 / direct=3 / weightb=1 / open_gop=0 / weightp=2 / keyint=250 / keyint_min=23 / scenecut=40 / intra_refresh=0 / rc_lookahead=60 / rc=crf / mbtree=0 / crf=16.0000 / qcomp=0.65 / qpmin=0:0:0 / qpmax=69:69:69 / qpstep=4 / vbv_maxrate=62500 / vbv_bufsize=78125 / crf_max=0.0 / nal_hrd=none / filler=0 / ip_ratio=1.30 / pb_ratio=1.20 / aq=3:0.80 / aq-sensitivity=10.00 / aq-factor=1.00:1.00:1.00 / aq2=0 / aq3=0 / zones=1103,2813,crf=13/12470,12970,crf=14/15001,18320,crf=15.5/18321,18366,crf=14/18367,23867,crf=15.5/35291,35363,crf=14/36844,36972,crf=13/37820,37891,crf=14/37983,38011,crf=14/39630,39777,crf=14/40202,40417,crf=14/40730,40873,crf=14/41654,41911,crf=14/43930,44045,crf=13/46114,46277,crf=14/53133,53200,crf=13/56100,56538,crf=12/57596,64438,crf=15.5/71181,71278,crf=13/87957,88110,crf=13/88955,89049,crf=12/101490,101720,crf=13/111220,111358,crf=13/111501,111623,crf=13/113766,113825,crf=14/116723,116804,crf=13/122800,122855,crf=13/128300,130895,crf=13
Language : English
Default : Yes
Forced : No
Color range : Limited
Matrix coefficients : BT.709

Audio #1
ID : 2
Format : AC-3
Format/Info : Audio Coding 3
Mode extension : CM (complete main)
Format settings, Endianness : Big
Codec ID : A_AC3
Duration : 1 h 38 min
Bit rate mode : Constant
Bit rate : 384 kb/s
Channel(s) : 6 channels
Channel positions : Front: L C R, Side: L R, LFE
Sampling rate : 48.0 kHz
Frame rate : 31.250 FPS (1536 spf)
Compression mode : Lossy
Stream size : 271 MiB (2%)
Title : Dub iTunes
Language : Russian
Default : Yes
Forced : No

Audio #2
ID : 3
Format : DTS
Format/Info : Digital Theater Systems
Mode : 16
Format settings, Endianness : Big
Codec ID : A_DTS
Duration : 1 h 38 min
Bit rate mode : Constant
Bit rate : 1 509 kb/s
Channel(s) : 6 channels
Channel positions : Front: L C R, Side: L R, LFE
Sampling rate : 48.0 kHz
Frame rate : 93.750 FPS (512 spf)
Bit depth : 24 bits
Compression mode : Lossy
Stream size : 1.04 GiB (9%)
Language : English
Default : No
Forced : No

Text #1
ID : 4
Format : UTF-8
Codec ID : S_TEXT/UTF8
Codec ID/Info : UTF-8 Plain Text
Language : English
Default : No
Forced : No

Text #2
ID : 5
Format : UTF-8
Codec ID : S_TEXT/UTF8
Codec ID/Info : UTF-8 Plain Text
Title : SDH
Language : English
Default : No
Forced : No

Menu
00:00:00.000 : en:Chapter 01
00:05:03.887 : en:Chapter 02
00:10:06.064 : en:Chapter 03
00:16:35.494 : en:Chapter 04
00:19:37.927 : en:Chapter 05
00:23:11.849 : en:Chapter 06
00:30:32.080 : en:Chapter 07
00:36:25.266 : en:Chapter 08
00:44:47.643 : en:Chapter 09
00:49:35.264 : en:Chapter 10
00:56:14.788 : en:Chapter 11
01:01:15.005 : en:Chapter 12
01:09:45.473 : en:Chapter 13
01:14:41.727 : en:Chapter 14
01:18:30.414 : en:Chapter 15
01:25:27.080 : en:Chapter 16
скриншот   скриншот   скриншот   скриншот  
pb.wtf



Скачать Аксель через торрент http://pic1.kartinco.top/images/12/dkby2.jpg Скачать фильм Аксель через торрент бесплантно в хорошем качестве Описание: Юный мотоциклист Майлз случайно находит новую военную разработку - гигантскую собаку-робота по имени Аксель. Обладая ... 9.8 10 21
Info! Золотая раздача, скачанное не засчитывается.
Торрент: Зарегистрирован [2019-01-01 17:03] · скачан: 793 раз
Статус: √ проверено
Размер: 11.73 GB
Как cкачать? Как скачать Аксель через торрент | qTorrent

% Раздел Тема Автор DL S | L
Фильмы 2018 [DVDrip, WEB-DLRip, HDrip] (DUB, MVO) [ 1.83 GB ] Аксель / A.X.L. [2018 BDRip-AVC] bober100 Скачать
4 | 0
Фильмы [HD 720p, 1080p] (Хороший звук DUB, MVO) [ 5.73 GB ] Аксель / A.X.L. [2018 BDRip-HEVC 1080p ] bober100 Скачать
1 | 0
Фильмы (HD 720p, 1080p) (48-60 fps) [ 15.43 GB ] Аксель / A-X-L [2018 BDRip 1080p 60 fps] sheker187 Скачать
1 | 0
Фильмы 2018 [DVDrip, WEB-DLRip, HDrip] (DUB, MVO) [ 1.4 GB ] Аксель / A.X.L. [2018 BDRip-AVC] - - ExKinoRay Enigma2010 Скачать
5 | 0
Фильмы 2018 [DVDrip, WEB-DLRip, HDrip] (DUB, MVO) [ 1.42 GB ] Аксель / A.X.L. [2018 BDRip] - Twi7ter Скачать
4 | 0
Фильмы (Blu-ray, BD-Remux, HDDVD) [ 25.56 GB ] Аксель / A.X.L. [2018 BD Remux 1080p] bober100 Скачать
2 | 0
Фильмы 2018 [DVDrip, WEB-DLRip, HDrip] (DUB, MVO) [ 747 MB ] Аксель / A.X.L. [2018 BDRip] bober100 Скачать
2 | 0

28-11-2019 20:33  

Отключить всю рекламу на сайте

01-01-2019 17:38 Аксель Скачать торрент  

какая чушь, зря только время потратил ,на просмотр данного шедевра((pb.wtf



14-01-2019 16:17 Аксель Скачать торрент  

gogoduhast писал(а):

какая чушь, зря только время потратил ,на просмотр данного шедевра((

Фильм очень хороший 8 из 10pb.wtf



31-01-2019 11:19 Аксель Скачать торрент  

pb.wtf



    Дорогой пользователь! Огромная просьба, поблагодарите релизера, оцените раздачу и оставьте свои комментарий, если Вы скачали Аксель через торрент бесплатно! Внесите свою лепту в развитие PiratBit!
    Комментировать посты могут только пользователи прошедшие не сложную регистрацию
    Показать сообщения:    

    Аксель через торрент
    Скачать бесплатно Аксель
    Аксель скачать торрент
    Аксель смотреть онлайн
    Cкачать фильм Аксель бесплатно
    Аксель скачать торрент в хорошем качестве
    Аксель смотреть онлайн бесплатно в хорошем качестве


    Вы не можете начинать темы
    Вы не можете отвечать на сообщения
    Вы не можете редактировать свои сообщения
    Вы не можете удалять свои сообщения
    Вы не можете голосовать в опросах
    Вы не можете прикреплять файлы к сообщениям
    Вы можете скачивать файлы