Ссылка на приватное зеркало нашего сайта всего за 1$. Внимание количество ограничено!!!

2 сезон

iTunes

1 сезон

1

2 сезон

2 сезон

iTunes

1 сезон

RePack

30

Новинка

ВАЖНО

ИГРА 18+

pack

RePack

MK11
pack

Забери бонус

RePack

jed

!!Акция!!

Alien_Rage

RePack

fifa19

RePack

Assassins Creed: Odyssey

RePack

NEED FOR SPEED™ PAYBACK

4 сезон

9 сезон

Бесстыжие 9 сезон

Все сериалы

все сериалы на PB.wtf

RePack

FAR CRY 5
  

Ривер / River / Сезон 1 / Серии 1-6 (6) (Тим Файвелл) [2015, детектив, драма, криминал, мистика BDRip 720p] [MVO] (AlexFilm) pb.wtf

Ривер через торрент pb.wtf

Размер: 13.6 GB | Добавлен: 1 год 10 мес. назад | Торрент скачан:41 раз
Скачать  

01-01-2019 18:39 Ривер Скачать торрент  


Ривер / River
1 сезон


Год выпуска: 2015
Страна: Великобритания
Жанр: детектив, драма, криминал, мистика
Продолжительность: 6 x ~ 01:00:00
Озвучание: профессиональное многоголосое закадровое (AlexFilm)
Субтитры: нет
Режиссеры: Тим Файвелл, Джесика Хоббс, Ричард Лэкстон

В ролях:Лесли Мэнвилл, Стеллан Скарсгард, Николя Уолкер, Адиль Ахтар, Эдди Марсан, Джорджина Рич, Оуэн Тил, Тёрло Конвери, Сорча Кьюсак, Майкл Мэлоуни
Описание: Повествование драмы сфокусируется на детективе полиции Джоне Ривере, наделенном даром расследовать самые запутанные дела, но страдающем от собственных демонов - Ривера преследуют жертвы убийств, дела незакрытых и которых уже казалось бы давно закрыты.
Релиз:

Перевод: Константин Кривоногов
Монтаж и сведение звука: Алексей Фокин
Роли озвучивали:
    • Наталья Ланц
    • Светлана Чистохина
    • Владимир Курдов
    • Михаил Суслов
    • Сергей Пономарев

Качество: BDRip 720p
Формат: MKV
Видео: 1280x720 (16:9), 25 fps, MPEG-4 AVC ~5000 kbps avg, 0.22 bit/pixel
Аудио Rus: 48 kHz, AC3 Dolby Digital, 3/2 (L,C,R,l,r) + LFE ch, ~384.00 kbps
Аудио Eng: 48 kHz, AC3 Dolby Digital, 3/2 (L,C,R,l,r) + LFE ch, ~384.00 kbps
Субтитры: нет
скриншот  скриншот  скриншот  
Формат : Matroska
Версия формата : Version 4 / Version 2
Размер файла : 2,34 Гбайт
Продолжительность : 58 м.
Общий поток : 5783 Кбит/сек
Название фильма : River 1x01 @ AlexFilm
Дата кодирования : UTC 2016-01-07 12:06:17
Программа кодирования : mkvmerge v7.1.0 ('Good Love') 64bit built on Jul 27 2014 13:06:55
Библиотека кодирования : libebml v1.3.0 + libmatroska v1.4.1

Видео
Идентификатор : 1
Формат : AVC
Формат/Информация : Advanced Video Codec
Профиль формата : High@L4.1
Параметр CABAC формата : Да
Параметр ReFrames формата : 5 кадров
Идентификатор кодека : V_MPEG4/ISO/AVC
Продолжительность : 58 м.
Битрейт : 5014 Кбит/сек
Ширина : 1280 пикселей
Высота : 720 пикселей
Соотношение сторон : 16:9
Режим частоты кадров : Постоянный
Частота кадров : 25,000 кадров/сек
Цветовое пространство : YUV
Субдискретизация насыщенности : 4:2:0
Битовая глубина : 8 бит
Тип развёртки : Прогрессивная
Бит/(Пиксели*Кадры) : 0.218
Размер потока : 1,99 Гбайт (85%)
Библиотека кодирования : x264 core 148 r2638 7599210
Настройки программы : cabac=1 / ref=5 / deblock=1:-2:-2 / analyse=0x3:0x113 / me=umh / subme=8 / psy=1 / psy_rd=1.00:0.00 / mixed_ref=1 / me_range=16 / chroma_me=1 / trellis=1 / 8x8dct=1 / cqm=0 / deadzone=21,11 / fast_pskip=1 / chroma_qp_offset=-2 / threads=6 / lookahead_threads=1 / sliced_threads=0 / nr=0 / decimate=1 / interlaced=0 / bluray_compat=0 / constrained_intra=0 / bframes=3 / b_pyramid=2 / b_adapt=2 / b_bias=0 / direct=3 / weightb=1 / open_gop=0 / weightp=2 / keyint=250 / keyint_min=25 / scenecut=40 / intra_refresh=0 / rc_lookahead=50 / rc=2pass / mbtree=1 / bitrate=5014 / ratetol=1.0 / qcomp=0.60 / qpmin=0 / qpmax=69 / qpstep=4 / cplxblur=20.0 / qblur=0.5 / ip_ratio=1.40 / aq=1:1.00
Язык : English
Default : Да
Forced : Нет

Аудио #1
Идентификатор : 2
Формат : AC-3
Формат/Информация : Audio Coding 3
Расширение режима : CM (complete main)
Параметр Endianness формата : Big
Идентификатор кодека : A_AC3
Продолжительность : 58 м.
Вид битрейта : Постоянный
Битрейт : 384 Кбит/сек
Каналы : 6 каналов
Расположение каналов : Front: L C R, Side: L R, LFE
Частота : 48,0 КГц
Метод сжатия : С потерями
Размер потока : 159 Мбайт (7%)
Заголовок : DD5.1 AlexFilm
Язык : Russian
Default : Да
Forced : Нет

Аудио #2
Идентификатор : 3
Формат : AC-3
Формат/Информация : Audio Coding 3
Расширение режима : CM (complete main)
Параметр Endianness формата : Big
Идентификатор кодека : A_AC3
Продолжительность : 58 м.
Вид битрейта : Постоянный
Битрейт : 384 Кбит/сек
Каналы : 6 каналов
Расположение каналов : Front: L C R, Side: L R, LFE
Частота : 48,0 КГц
Метод сжатия : С потерями
Размер потока : 159 Мбайт (7%)
Заголовок : DD5.1 Original
Язык : English
Default : Нет
Forced : Нет
pb.wtf



Скачать Ривер через торрент http://i73.fastpic.ru/big/2015/1121/5e/c23be36b8149e486b50fa0d28822855e.png Скачать фильм Ривер через торрент бесплантно в хорошем качестве Описание: Повествование драмы сфокусируется на детективе полиции Джоне Ривере, наделенном даром расследовать самые запутанные дела, но ... 1 10 2
Торрент: Зарегистрирован [2019-01-01 18:39] · скачан: 41 раз
Статус: √ проверено
Размер: 13.6 GB
Как cкачать? Как скачать Ривер через торрент | qTorrent

% Раздел Тема Автор DL S | L
Зарубежные сериалы [ 4.07 GB ] Ривер / River / Сезон 1 / Серии 1-6 [2015 HDRip] [MVO] killermax2013 Скачать
1 | 0

28-11-2019 20:33  

Отключить всю рекламу на сайте

    Дорогой пользователь! Огромная просьба, поблагодарите релизера, оцените раздачу и оставьте свои комментарий, если Вы скачали Ривер через торрент бесплатно! Внесите свою лепту в развитие PiratBit!
    Комментировать посты могут только пользователи прошедшие не сложную регистрацию
    Показать сообщения:    

    Ривер через торрент
    Скачать бесплатно Ривер
    Ривер скачать торрент
    Ривер смотреть онлайн
    Cкачать фильм Ривер бесплатно
    Ривер скачать торрент в хорошем качестве
    Ривер смотреть онлайн бесплатно в хорошем качестве


    Вы не можете начинать темы
    Вы не можете отвечать на сообщения
    Вы не можете редактировать свои сообщения
    Вы не можете удалять свои сообщения
    Вы не можете голосовать в опросах
    Вы не можете прикреплять файлы к сообщениям
    Вы можете скачивать файлы