новый адрес
Ссылка на приватное зеркало всего за 1$. Внимание количество ограничено!!!

iTunes

1+1

iTunes

мы

iTunes

1

iTunes

Чернобыль

iTunes

Ральф против интернета

Лицензия

ПШазам

Лицензия

Оно 2

Лицензия

30
pack

Вам бонус

ВАЖНО

!!Акция!!

Alien_RageХит недели

RePack

Resident Evil 21

ИГРА 18+

pack

RePack

jed

!!Акция!!

Alien_Rage

RePack

fifa19

RePack

Assassins Creed: Odyssey

RePack

NEED FOR SPEED™ PAYBACK

3 сезон

9 сезон

Бесстыжие 9 сезон

Все сериалы

все сериалы на PB.wtf

RePack

FAR CRY 5
Ребята, катастрофически не хватает 1900р. для оплаты серверов за Октябрь (всвязи с блокировками трафик упал в 3 раза), 1-2р., выручайте.
  

Однажды в Америке или Чисто русская сказка (Дмитрий Панченко) [2018, Комедия, приключения, WEBRip] pb.wtf

Однажды в Америке или Чисто русская сказка через торрент pb.wtf

Раздают: 3 [ 0.7 KB/s ]
Размер: 1.45 GB | Добавлен: 10 мес. назад | Торрент скачан:977 раз
Скачать  

02-01-2019 03:29 Однажды в Америке или Чисто русская сказка Скачать торрент  

Однажды в Америке или Чисто русская сказка Год выпуска: 2018
Страна: Россия
Жанр: Комедия, приключения
Продолжительность: 01:35:08
Перевод: Не требуется
Субтитры: отсутствуют

Режиссер: Дмитрий Панченко

В ролях:

Михаил Башкатов, Эммануил Виторган, Юрий Гальцев, Марина Орлова, Елена Синилова, братья Пономаренко, Николай Бандурин, Игорь Письменный, Елена Задорнова

Описание:

В маленькой стране Аннунакия на престол восходит молодой король — Макбук-102-й. Согласно завещанию отца, Макбук должен взять в гарем юбилейную русскую жену. И так совпало, что как раз в это время по стране гастролирует русский народный ансамбль! В то время, пока молодой король ищет русскую красавицу, президент государства Самая Шибкодемократическая Автономия (сокращенно — С.Ш.А.) планирует во что бы то ни стало сделать Аннунакию демократической страной.

Качество: WEBRip
Формат: AVI

Видео: XviD build 73, 720x304 (2.35:1), 25.000 fps, 1990 Kbps (0.364 bit/pixel)
Аудио: 48.0 kHz, AC3, 2/0 ch, 192 kbps
скриншот  скриншот  скриншот  скриншот  скриншот  

General
Complete name : D:RazdachiV.Amerike.2018.XviD.WEBRip.GeneralFilm.avi
Format : AVI
Format/Info : Audio Video Interleave
File size : 1.45 GiB
Duration : 1 h 35 min
Overall bit rate : 2 191 kb/s
Writing application : VirtualDubMod 1.5.10.3 | www.virtualdub-fr.org || (build 2550/release)
Writing library : VirtualDubMod build 2550/release

Video
ID : 0
Format : MPEG-4 Visual
Format profile : Advanced Simple@L5
Format settings, BVOP : 1
Format settings, QPel : No
Format settings, GMC : No warppoints
Format settings, Matrix : Custom
Codec ID : XVID
Codec ID/Hint : XviD
Duration : 1 h 35 min
Bit rate : 1 990 kb/s
Width : 720 pixels
Height : 304 pixels
Display aspect ratio : 2.35:1
Frame rate : 25.000 FPS
Color space : YUV
Chroma subsampling : 4:2:0
Bit depth : 8 bits
Scan type : Progressive
Compression mode : Lossy
Bits/(Pixel*Frame) : 0.364
Stream size : 1.32 GiB (91%)
Writing library : XviD 73

Audio
ID : 1
Format : AC-3
Format/Info : Audio Coding 3
Format settings, Endianness : Big
Codec ID : 2000
Duration : 1 h 35 min
Bit rate mode : Constant
Bit rate : 192 kb/s
Channel(s) : 2 channels
Channel positions : Front: L R
Sampling rate : 48.0 kHz
Frame rate : 31.250 FPS (1536 SPF)
Bit depth : 16 bits
Compression mode : Lossy
Stream size : 130 MiB (9%)
Alignment : Split accross interleaves
Interleave, duration : 40 ms (1.00 video frame)
Interleave, preload duratio : 500 ms
Service kind : Complete Main

pb.wtf



Скачать Однажды в Америке или Чисто русская сказка через торрент https://i107.fastpic.ru/big/2019/0101/05/0561da89e58c7fc0f3199307b413f005.jpg Скачать фильм Однажды в Америке или Чисто русская сказка через торрент бесплантно в хорошем качестве Описание: В маленькой стране Аннунакия на престол восходит молодой король — Макбук-102-й. Согласно завещанию отца, Макбук должен взять в ... 8.9 10 24
Торрент: Зарегистрирован [2019-01-02 03:29] · скачан: 977 раз
Статус: √ проверено
Размер: 1.45 GB
Как cкачать? Как скачать Однажды в Америке или Чисто русская сказка через торрент | qTorrent

% Раздел Тема Автор DL S | L
Наши фильмы (HD, WEB-DL 720p, 1080p) [ 4.12 GB ] Однажды в Америке или Чисто русская сказка [2018 WEBRip 1080p] bober100 Скачать
1 | 0

02-01-2019 06:53 Однажды в Америке или Чисто русская сказка Скачать торрент  

А Сергей Писаренко Евгений Никишин из Уездного города тут не в ролях ?pb.wtf



02-01-2019 08:43 Однажды в Америке или Чисто русская сказка Скачать торрент  

Убогое кино как и 90% наших фильмов, у нас только военные умеют снимать, ну и про тюрьмы) лично я так считаю.pb.wtf



03-01-2019 07:06 Однажды в Америке или Чисто русская сказка Скачать торрент  

Да, к сожалению кино-говно точка ком.pb.wtf



04-01-2019 05:34 Однажды в Америке или Чисто русская сказка Скачать торрент  

Полное дермище!!!!! pb.wtf



04-01-2019 10:51 Однажды в Америке или Чисто русская сказка Скачать торрент  

а чё на кинопоиске нет его ?pb.wtf



12-01-2019 21:07 Однажды в Америке или Чисто русская сказка Скачать торрент  

Голубые каски, против Русской сказки!pb.wtf



    Дорогой пользователь! Огромная просьба, поблагодарите релизера, оцените раздачу и оставьте свои комментарий, если Вы скачали Однажды в Америке или Чисто русская сказка через торрент бесплатно! Внесите свою лепту в развитие PiratBit!
    Комментировать посты могут только пользователи прошедшие не сложную регистрацию
    Показать сообщения:    

    Однажды в Америке или Чисто русская сказка через торрент
    Скачать бесплатно Однажды в Америке или Чисто русская сказка
    Однажды в Америке или Чисто русская сказка скачать торрент
    Однажды в Америке или Чисто русская сказка смотреть онлайн
    Cкачать фильм Однажды в Америке или Чисто русская сказка бесплатно
    Однажды в Америке или Чисто русская сказка скачать торрент в хорошем качестве
    Однажды в Америке или Чисто русская сказка смотреть онлайн бесплатно в хорошем качестве


    Вы не можете начинать темы
    Вы не можете отвечать на сообщения
    Вы не можете редактировать свои сообщения
    Вы не можете удалять свои сообщения
    Вы не можете голосовать в опросах
    Вы не можете прикреплять файлы к сообщениям
    Вы можете скачивать файлы