Ссылка на приватное зеркало нашего сайта всего за 1$. Внимание количество ограничено!!!

2 сезон

iTunes

1 сезон

1

2 сезон

2 сезон

iTunes

1 сезон

RePack

30

Новинка

ВАЖНО

ИГРА 18+

pack

RePack

MK11
pack

Забери бонус

RePack

jed

!!Акция!!

Alien_Rage

RePack

fifa19

RePack

Assassins Creed: Odyssey

RePack

NEED FOR SPEED™ PAYBACK

4 сезон

9 сезон

Бесстыжие 9 сезон

Все сериалы

все сериалы на PB.wtf

RePack

FAR CRY 5
  

Лютер / Luther / 1-4 сезон / 01-16 серии (16) (Сэм Миллер, Брайан Кирк, Стефан Шварц) [2010-2015, Криминал, драма, детектив, BDRip] [MVO] (Эй Би Видео) pb.wtf

Лютер через торрент pb.wtf

Размер: 9.75 GB | Добавлен: 1 год 10 мес. назад | Торрент скачан:98 раз
Скачать  

02-01-2019 07:55 Лютер Скачать торрент  

Лютер / Luther
Год выхода: 2010-2015
Жанр: Криминал, драма, детектив
Выпущено: Великобритания, British Broadcasting Corporation (BBC)
Продолжительность: 16x ~00:58:17
Перевод: Профессиональный (многоголосый закадровый) | Эй Би Видео

Режиссер: Сэм Миллер, Брайан Кирк, Стефан Шварц

В ролях: Идрис Эльба, Рут Уилсон, Стивен Макинтош, Индира Варма, Саския Ривз, Уоррен Браун, Пол МакГэнн и Дермот Краули Мрачная психологическая криминальная драма, рассказывающая о гениальном детективе , страдающем от собственных демонов. Он может быть таким же опасным, как и убийцы, которых он ловит.

rating

Качество: BDRip
Формат: AVI
Видео кодек: XvID
Аудио кодек: AC3
Видео: XviD, ~ 1507 Кбит/с, 720x400
Аудио: 48 kHz, AC3, 2 ch, ~192.00 kbps avg
Золотой глобус, 2014 год
Номинации (2):
Лучший актёр мини-сериала или фильма на ТВ (Идрис Эльба)
Лучший актёр мини-сериала или фильма на ТВ (Идрис Эльба)


Эмми, 2014 год
Номинации (2):
Лучший мини-сериал
Лучшая мужская роль в мини-сериале или телефильме (Идрис Эльба)


Золотой глобус, 2012 год
Победитель (1):
Лучший актёр мини-сериала или фильма на ТВ (Идрис Эльба)


Эмми, 2012 год
Номинации (2):
Лучший мини-сериал или телевизионный фильм
Лучшая мужская роль в мини-сериале или телефильме (Идрис Эльба)


Золотой глобус, 2011 год
Номинации (1):
Лучший актёр мини-сериала или фильма на ТВ (Идрис Эльба)


Эмми, 2011 год
Номинации (1):
Лучшая мужская роль в мини-сериале или телефильме (Идрис Эльба)
General
Complete name : E:\Luther\Luther.s01e01e02.avi
Format : AVI
Format/Info : Audio Video Interleave
File size : 1.24 GiB
Duration : 1 h 43 min
Overall bit rate : 1 710 kb/s
Movie name : Luther.s01e01e02.Skreech
Writing application : VirtualDubMod 1.5.10.3 | www.virtualdub-fr.org || (build 2550/release)

Video
ID : 0
Format : MPEG-4 Visual
Format profile : Advanced Simple@L5
Format settings : BVOP1 / Custom Matrix
Format settings, BVOP : 1
Format settings, QPel : No
Format settings, GMC : No warppoints
Format settings, Matrix : Custom
Codec ID : XVID
Codec ID/Hint : XviD
Duration : 1 h 43 min
Source duration : 27 min 20 s
Bit rate : 1 449 kb/s
Width : 720 pixels
Height : 400 pixels
Display aspect ratio : 16:9
Frame rate : 25.000 FPS
Color space : YUV
Chroma subsampling : 4:2:0
Bit depth : 8 bits
Scan type : Progressive
Compression mode : Lossy
Bits/(Pixel*Frame) : 0.201
Stream size : 283 MiB (22%)
Writing library : XviD 73

Audio
ID : 1
Format : AC-3
Format/Info : Audio Coding 3
Format settings, Endianness : Big
Codec ID : 2000
Duration : 1 h 43 min
Source duration : 27 min 20 s
Bit rate mode : Constant
Bit rate : 192 kb/s
Channel(s) : 2 channels
Channel positions : Front: L R
Sampling rate : 48.0 kHz
Frame rate : 31.250 FPS (1536 SPF)
Bit depth : 16 bits
Compression mode : Lossy
Stream size : 37.6 MiB (3%)
Alignment : Split accross interleaves
Interleave, duration : 40 ms (1.00 video frame)
Interleave, preload duratio : 500 ms
Service kind : Complete Main
скриншот  скриншот  скриншот  
pb.wtf



Скачать Лютер через торрент https://i108.fastpic.ru/big/2019/0102/84/ef6521f7a4455a911d6b05ad29cb3684.jpg Скачать фильм Лютер через торрент бесплантно в хорошем качестве В ролях: Идрис Эльба, Рут Уилсон, Стивен Макинтош, Индира Варма, Саския Ривз, Уоррен Браун, Пол МакГэнн и Дермот Краули Мрачная ... 10 10 5
Торрент: Зарегистрирован [2019-01-02 07:55] · скачан: 98 раз
Статус: √ проверено
Размер: 9.75 GB
Как cкачать? Как скачать Лютер через торрент | qTorrent

% Раздел Тема Автор DL S | L
Зарубежные сериалы [ 44.5 GB ] Лютер / Luther / 1-4 сезон / 01-16 серии [2010-2015 BDRip 720p] [DVO] killermax2013 Скачать
1 | 0


Последний раз редактировалось: killermax2013 (2019-01-02 10:52), всего редактировалось 1 раз

28-11-2019 20:33  

Отключить всю рекламу на сайте

02-01-2019 08:04 Лютер Скачать торрент  

сегодня стартует 5-ый сезон , сериал крут pb.wtf



02-01-2019 10:49 Лютер Скачать торрент  

на одном дыхании все сезоны.это огонь вооще.продолжаем оказывается смотреть.pb.wtf



    Дорогой пользователь! Огромная просьба, поблагодарите релизера, оцените раздачу и оставьте свои комментарий, если Вы скачали Лютер через торрент бесплатно! Внесите свою лепту в развитие PiratBit!
    Комментировать посты могут только пользователи прошедшие не сложную регистрацию
    Показать сообщения:    

    Лютер через торрент
    Скачать бесплатно Лютер
    Лютер скачать торрент
    Лютер смотреть онлайн
    Cкачать фильм Лютер бесплатно
    Лютер скачать торрент в хорошем качестве
    Лютер смотреть онлайн бесплатно в хорошем качестве


    Вы не можете начинать темы
    Вы не можете отвечать на сообщения
    Вы не можете редактировать свои сообщения
    Вы не можете удалять свои сообщения
    Вы не можете голосовать в опросах
    Вы не можете прикреплять файлы к сообщениям
    Вы можете скачивать файлы