Ссылка на приватное зеркало нашего сайта всего за 1$. Внимание количество ограничено!!!

2 сезон

iTunes

1 сезон

1

2 сезон

2 сезон

iTunes

1 сезон

RePack

30

Ultimate

ВАЖНО

ИГРА 18+

pack

RePack

MK11
pack

Забери бонус

RePack

jed

!!Акция!!

Alien_Rage

RePack

fifa19

RePack

Assassins Creed: Odyssey

RePack

NEED FOR SPEED™ PAYBACK

4 сезон

9 сезон

Бесстыжие 9 сезон

Все сериалы

все сериалы на PB.wtf

RePack

FAR CRY 5
  

Лютер / Luther / Сезон: 5 / Серии 1- 4 из 4 (Сэм Миллер, Брайан Кирк, Стефан Шварц) [2019, Криминал, драма, детектив, HDTVRip 720p] [DVO] (KosharaSerials) pb.wtf

Лютер через торрент pb.wtf

Размер: 2.72 GB | Добавлен: 1 год 10 мес. назад | Торрент скачан:18 раз
Скачать  

02-01-2019 10:09 Лютер Скачать торрент  

Лютер / Luther
Информация о сериале

Год выпуска: 2019
Жанр: Криминал, драма, детектив
Страна: Великобритания
Продолжительность: 1 x ~ 00:50:00
Перевод: Любительский (двухголосый закадровый) KosharaSerials

Режиссер: Сэм Миллер, Брайан Кирк, Стефан Шварц

В ролях: Идрис Эльба, Рут Уилсон, Уоррен Браун, Дермот Краули, Майкл Смайли, Никки Амука-Бёрд, Сиенна Гиллори, Стивен Макинтош, Индира Варма, Дэвид О’Хара

О фильме: История о выдающемся детективе Джоне Лютере, показывающая, что грязный полицейский и грязные методы — разные вещи. Успешность Лютера заключается в высокой раскрываемости преступлений, благодаря его нестандартным методам, которые он использует для поимки опаснейших преступников Лондона. Но сойдут ли с рук главному герою его собственные правила среди букв закона?…


rating
скриншот  

Файл
Кодек: x264 (AVC)
Качество: HDTVRip 720p
Видео: MPEG-4 AVC, ~ 1600 Кбит/с, 1280х720
Звук: Русский / AC3 / 2 Ch / 192kbs
скриншот   скриншот   скриншот  
General
Unique ID : 192276729191034516792169803926501561406 (0x90A726AA47FC8C8A96409A40D277943E)
Complete name : E:\Luther.S05.720p.KosharaSerials\Luther.S05E01.720p.KosharaSerials.mkv
Format : Matroska
Format version : Version 4 / Version 2
File size : 736 MiB
Duration : 57 min 44 s
Overall bit rate : 1 781 kb/s
Encoded date : UTC 2019-01-02 09:23:11
Writing application : mkvmerge v8.3.0 ('Over the Horizon') 64bit
Writing library : libebml v1.3.1 + libmatroska v1.4.2

Video
ID : 1
Format : AVC
Format/Info : Advanced Video Codec
Format profile : High@L3.1
Format settings : CABAC / 4 Ref Frames
Format settings, CABAC : Yes
Format settings, RefFrames : 4 frames
Codec ID : V_MPEG4/ISO/AVC
Duration : 57 min 44 s
Bit rate : 1 554 kb/s
Width : 1 280 pixels
Height : 720 pixels
Display aspect ratio : 16:9
Frame rate mode : Constant
Frame rate : 25.000 FPS
Color space : YUV
Chroma subsampling : 4:2:0
Bit depth : 8 bits
Scan type : Progressive
Bits/(Pixel*Frame) : 0.067
Stream size : 642 MiB (87%)
Writing library : x264 core 146 r2538 121396c
Encoding settings : cabac=1 / ref=1 / deblock=1:0:0 / analyse=0x3:0x113 / me=hex / subme=2 / psy=1 / psy_rd=1.00:0.00 / mixed_ref=0 / me_range=16 / chroma_me=1 / trellis=0 / 8x8dct=1 / cqm=0 / deadzone=21,11 / fast_pskip=1 / chroma_qp_offset=0 / threads=10 / lookahead_threads=3 / sliced_threads=0 / nr=0 / decimate=1 / interlaced=0 / bluray_compat=0 / constrained_intra=0 / bframes=3 / b_pyramid=2 / b_adapt=1 / b_bias=0 / direct=1 / weightb=1 / open_gop=0 / weightp=1 / keyint=250 / keyint_min=25 / scenecut=40 / intra_refresh=0 / rc_lookahead=10 / rc=crf / mbtree=1 / crf=18.0 / qcomp=0.60 / qpmin=0 / qpmax=69 / qpstep=4 / ip_ratio=1.40 / aq=1:1.00
Default : Yes
Forced : No

Audio
ID : 2
Format : AC-3
Format/Info : Audio Coding 3
Format settings, Endianness : Big
Codec ID : A_AC3
Duration : 57 min 44 s
Bit rate mode : Constant
Bit rate : 192 kb/s
Channel(s) : 2 channels
Channel positions : Front: L R
Sampling rate : 48.0 kHz
Frame rate : 31.250 FPS (1536 SPF)
Bit depth : 16 bits
Compression mode : Lossy
Stream size : 79.3 MiB (11%)
Service kind : Complete Main
Default : Yes
Forced : No
Внимание! Раздача ведётся путём добавления новых серий; при каждом добавлении создаётся новый торрент. Чтобы начать докачку новой серии, пользователям необходимо сделать следующее:
(1) остановить скачивание,
(2) удалить старый торрент у себя из клиента (старые серии удалять не надо),
(3) скачать новый торрент и запустить его у себя в клиенте вместо старого, при этом указать клиенту путь в старую папку куда и должно происходить скачивание новых серий.
Ваш клиент при этом должен произвести хеширование (проверку) старой папки (если не производит сам - помогите ему сделать это), и будет докачивать только те серии которых у вас ещё нет. Старые серии при этом не удаляются, а продолжают раздаваться!
Eсли вы уже удалили старые серии, то предотвратить повторную закачку старых серий можно, отжав галочку в соответствующих местах при запуске нового торрента. По возможности, желательно не удалять старые серии как можно дольше чтобы релизёр не столько продолжал раздавать старые серии, а смог сконцентрироваться на новых.
pb.wtf



Скачать Лютер через торрент http://s011.radikal.ru/i317/1605/30/a47b084496dc.jpg Скачать фильм Лютер через торрент бесплантно в хорошем качестве О фильме: История о выдающемся детективе Джоне Лютере, показывающая, что грязный полицейский и грязные методы — разные вещи. Успешность ... 10 10 3
Торрент: Зарегистрирован [2019-01-05 06:40] · скачан: 18 раз
Статус: √ проверено
Размер: 2.72 GB
Как cкачать? Как скачать Лютер через торрент | qTorrent

% Раздел Тема Автор DL S | L
Зарубежные сериалы [ 7.05 GB ] Лютер / Luther / Сезон: 5 / Серии: 1-4 из 4 [2019 WEB-DL 1080p] [MVO] killermax2013 Скачать
1 | 0
Зарубежные сериалы [ 3.58 GB ] Лютер / Luther / Сезон: 5 / Серии: 1-4 из 4 [2019 WEB-DL 720p] [MVO] killermax2013 Скачать
1 | 0
Зарубежные сериалы [ 7.05 GB ] Лютер / Luther / Сезон: 5 / Серии: 1-4 из 4 [2019 WEB-DL 1080p] [MVO] + 2x[Sub] killermax2013 Скачать
1 | 0
Зарубежные сериалы [ 2.86 GB ] Лютер / Luther / Сезон: 5 / Серии: 1-4 из 4 [2019 WEB-DLRip] [MVO] + 2x[Sub] killermax2013 Скачать
1 | 0
Зарубежные сериалы [ 2.16 GB ] Лютер / Luther / Сезон: 5 / Серии 1-4 из 4 [2019 WEBRip 720p] [MVO] killermax2013 Скачать
1 | 0
Зарубежные сериалы [ 1.05 GB ] Лютер / Luther / Сезон: 5 / Серии 1-4 из 4 [2019 WEBRip] [MVO] killermax2013 Скачать
1 | 0
Зарубежные сериалы [ 4.69 GB ] Лютер / Luther / Сезон: 5 / Серии 1-4 из 4 [2019 WEBRip 1080p] [MVO] killermax2013 Скачать
1 | 0

28-11-2019 20:33  

Отключить всю рекламу на сайте

    Дорогой пользователь! Огромная просьба, поблагодарите релизера, оцените раздачу и оставьте свои комментарий, если Вы скачали Лютер через торрент бесплатно! Внесите свою лепту в развитие PiratBit!
    Комментировать посты могут только пользователи прошедшие не сложную регистрацию
    Показать сообщения:    

    Лютер через торрент
    Скачать бесплатно Лютер
    Лютер скачать торрент
    Лютер смотреть онлайн
    Cкачать фильм Лютер бесплатно
    Лютер скачать торрент в хорошем качестве
    Лютер смотреть онлайн бесплатно в хорошем качестве


    Вы не можете начинать темы
    Вы не можете отвечать на сообщения
    Вы не можете редактировать свои сообщения
    Вы не можете удалять свои сообщения
    Вы не можете голосовать в опросах
    Вы не можете прикреплять файлы к сообщениям
    Вы можете скачивать файлы