Ссылка на приватное зеркало нашего сайта всего за 1$. Внимание количество ограничено!!!

2 сезон

iTunes

1 сезон

1

2 сезон

2 сезон

iTunes

1 сезон

RePack

30

Новинка

ВАЖНО

ИГРА 18+

pack

RePack

MK11
pack

Забери бонус

RePack

jed

!!Акция!!

Alien_Rage

RePack

fifa19

RePack

Assassins Creed: Odyssey

RePack

NEED FOR SPEED™ PAYBACK

4 сезон

9 сезон

Бесстыжие 9 сезон

Все сериалы

все сериалы на PB.wtf

RePack

FAR CRY 5
  

54 часа / Gladbeck / Сезон: 1 / Серии: 1-2 из 2 (Килиан Ридхоф / Kilian Riedhof) [2018, триллер, драма, криминал, BDRemux 1080p] [MVO] (SDI Media) pb.wtf

54 часа через торрент pb.wtf

Размер: 38.5 GB | Добавлен: 1 год 11 мес. назад | Торрент скачан:0 раз
Скачать  

02-01-2019 12:15 54 часа Скачать торрент  

54 часа / Gladbeck Год выпуска: 2018
Страна: Германия
Жанр: триллер, драма, криминал
Продолжительность: ~ 01:28:00
Перевод: Профессиональный (многоголосый закадровый) SDI Media

Режиссёр: Килиан Ридхоф / Kilian Riedhof

В ролях: Саша Александр Герша, Мари Роза Титджен, Александр Шеер, Мартин Вуттке, Са Са Инчи Бюркле, Йоханнес Алльмайер, Лилли Фихтнер, Ульрих Нётен, Риккардо Кэмпион, Амели Кифер

Описание: В основе фильма лежит реальная история, потрясшая немецкое общество летом 1988 года и выявившая скандальное количество ошибок, совершённых средствами массовой информации и полицией в попытке спасти заложников.

rating
Сэмпл: http://sendfile.su/1458713

Качество: BDRemux 1080p
Контейнер: MKV
Видео: MPEG4 Video (H264) 1920x1080 25fps 27.0 Mb/s
Аудио 1: Dolby AC3 48000Hz 6ch 448kbps [SDI Media] [rus]
Аудио 2: DTS 48000Hz 6ch 6912kbps [ger]
Субтитры: отсутствуют
Нет перевода вначале 2-ой серии (5 минут), так как по ТВ данный мини сериал показывали как один фильм и порезали конец первой серии (анонс + титры) и начало второй.
Teil 1 / часть 1
Teil 2 / часть 2
General
Unique ID : 40738352543118667124521346887406607440 (0x1EA5EBDAA14A1783331F59EFC9F05C50)
Complete name : Gladbeck\Gladbeck Teil 1.mkv
Format : Matroska
Format version : Version 4 / Version 2
File size : 19.0 GiB
Duration : 1 h 27 min
Overall bit rate mode : Variable
Overall bit rate : 31.1 Mb/s
Encoded date : UTC 2018-11-30 18:09:05
Writing application : mkvmerge v19.0.0 ('Brave Captain') 64-bit
Writing library : libebml v1.3.5 + libmatroska v1.4.8
Cover : Yes
Attachments : cover.jpg

Video
ID : 1
Format : AVC
Format/Info : Advanced Video Codec
Format profile : High@L4.1
Format settings : CABAC / 3 Ref Frames
Format settings, CABAC : Yes
Format settings, ReFrames : 3 frames
Codec ID : V_MPEG4/ISO/AVC
Duration : 1 h 27 min
Bit rate mode : Variable
Bit rate : 27.0 Mb/s
Maximum bit rate : 37.0 Mb/s
Width : 1 920 pixels
Height : 1 080 pixels
Display aspect ratio : 16:9
Frame rate mode : Constant
Frame rate : 25.000 FPS
Color space : YUV
Chroma subsampling : 4:2:0
Bit depth : 8 bits
Scan type : Progressive
Bits/(Pixel*Frame) : 0.520
Stream size : 16.5 GiB (87%)
Language : German
Default : Yes
Forced : No

Audio #1
ID : 2
Format : AC-3
Format/Info : Audio Coding 3
Codec ID : A_AC3
Duration : 1 h 27 min
Bit rate mode : Constant
Bit rate : 448 kb/s
Channel(s) : 6 channels
Channel positions : Front: L C R, Side: L R, LFE
Sampling rate : 48.0 kHz
Frame rate : 31.250 FPS (1536 SPF)
Bit depth : 16 bits
Compression mode : Lossy
Stream size : 280 MiB (1%)
Title : SDI Media
Language : Russian
Service kind : Complete Main
Default : Yes
Forced : No

Audio #2
ID : 3
Format : DTS
Format/Info : Digital Theater Systems
Format profile : MA / Core
Codec ID : A_DTS
Duration : 1 h 27 min
Bit rate mode : Variable / Constant
Bit rate : 3 704 kb/s / 1 509 kb/s
Channel(s) : 6 channels
Channel positions : Front: L C R, Side: L R, LFE
Sampling rate : 48.0 kHz
Frame rate : 93.750 FPS (512 SPF)
Bit depth : 24 bits
Compression mode : Lossless / Lossy
Stream size : 2.26 GiB (12%)
Language : German
Default : No
Forced : No

Menu
00:00:00.000 : en:00:00:00.000
00:06:37.360 : en:00:06:37.360
00:14:16.560 : en:00:14:16.560
00:20:37.400 : en:00:20:37.400
00:29:57.200 : en:00:29:57.200
00:37:16.600 : en:00:37:16.600
00:43:53.640 : en:00:43:53.640
00:50:57.840 : en:00:50:57.840
00:57:42.600 : en:00:57:42.600
01:05:39.760 : en:01:05:39.760
01:12:42.360 : en:01:12:42.360
01:22:41.600 : en:01:22:41.600
General
Unique ID : 264061455491681677694686353048211794156 (0xC6A862ED02A54DC70AF4EFEF8463A8EC)
Complete name : Gladbeck\Gladbeck Teil 2.mkv
Format : Matroska
Format version : Version 4 / Version 2
File size : 19.5 GiB
Duration : 1 h 29 min
Overall bit rate mode : Variable
Overall bit rate : 31.3 Mb/s
Encoded date : UTC 2018-12-01 06:40:19
Writing application : mkvmerge v19.0.0 ('Brave Captain') 64-bit
Writing library : libebml v1.3.5 + libmatroska v1.4.8
Cover : Yes
Attachments : cover.jpg

Video
ID : 1
Format : AVC
Format/Info : Advanced Video Codec
Format profile : High@L4.1
Format settings : CABAC / 3 Ref Frames
Format settings, CABAC : Yes
Format settings, ReFrames : 3 frames
Codec ID : V_MPEG4/ISO/AVC
Duration : 1 h 29 min
Bit rate mode : Variable
Bit rate : 27.0 Mb/s
Maximum bit rate : 37.0 Mb/s
Width : 1 920 pixels
Height : 1 080 pixels
Display aspect ratio : 16:9
Frame rate mode : Constant
Frame rate : 25.000 FPS
Color space : YUV
Chroma subsampling : 4:2:0
Bit depth : 8 bits
Scan type : Progressive
Bits/(Pixel*Frame) : 0.521
Stream size : 16.8 GiB (86%)
Language : German
Default : Yes
Forced : No

Audio #1
ID : 2
Format : AC-3
Format/Info : Audio Coding 3
Codec ID : A_AC3
Duration : 1 h 29 min
Bit rate mode : Constant
Bit rate : 448 kb/s
Channel(s) : 6 channels
Channel positions : Front: L C R, Side: L R, LFE
Sampling rate : 48.0 kHz
Frame rate : 31.250 FPS (1536 SPF)
Bit depth : 16 bits
Compression mode : Lossy
Stream size : 285 MiB (1%)
Title : SDI Media
Language : Russian
Service kind : Complete Main
Default : Yes
Forced : No

Audio #2
ID : 3
Format : DTS
Format/Info : Digital Theater Systems
Format profile : MA / Core
Codec ID : A_DTS
Duration : 1 h 29 min
Bit rate mode : Variable / Constant
Bit rate : 3 840 kb/s / 1 509 kb/s
Channel(s) : 6 channels
Channel positions : Front: L C R, Side: L R, LFE
Sampling rate : 48.0 kHz
Frame rate : 93.750 FPS (512 SPF)
Bit depth : 24 bits
Compression mode : Lossless / Lossy
Stream size : 2.43 GiB (12%)
Language : German
Default : No
Forced : No

Menu
00:00:00.000 : en:00:00:00.000
00:06:12.880 : en:00:06:12.880
00:14:28.360 : en:00:14:28.360
00:23:05.680 : en:00:23:05.680
00:29:39.200 : en:00:29:39.200
00:36:33.040 : en:00:36:33.040
00:43:44.640 : en:00:43:44.640
00:50:57.760 : en:00:50:57.760
00:58:34.320 : en:00:58:34.320
01:05:43.520 : en:01:05:43.520
01:13:46.680 : en:01:13:46.680
01:20:48.440 : en:01:20:48.440
скриншот  скриншот  скриншот  
pb.wtf



Скачать 54 часа через торрент https://i107.fastpic.ru/big/2018/1201/ab/9fc7442a97a9bbffd46f420587c9f9ab.jpg Скачать фильм 54 часа через торрент бесплантно в хорошем качестве Описание: В основе фильма лежит реальная история, потрясшая немецкое общество летом 1988 года и выявившая скандальное количество ошибок, ... 5 10 1
Info! Золотая раздача, скачанное не засчитывается.
Торрент: Зарегистрирован [2019-01-02 12:15] · скачан: 0 раз
Статус: √ проверено
Размер: 38.5 GB
Как cкачать? Как скачать 54 часа через торрент | qTorrent

% Раздел Тема Автор DL S | L
Зарубежные сериалы [ 2.91 GB ] 54 часа / Gladbeck / Сезон: 1 / Серии: 1-2 из 2 [2018 BDRip] [MVO] killermax2013 Скачать
1 | 0

28-11-2019 20:33  

Отключить всю рекламу на сайте

    Дорогой пользователь! Огромная просьба, поблагодарите релизера, оцените раздачу и оставьте свои комментарий, если Вы скачали 54 часа через торрент бесплатно! Внесите свою лепту в развитие PiratBit!
    Комментировать посты могут только пользователи прошедшие не сложную регистрацию
    Показать сообщения:    

    54 часа через торрент
    Скачать бесплатно 54 часа
    54 часа скачать торрент
    54 часа смотреть онлайн
    Cкачать фильм 54 часа бесплатно
    54 часа скачать торрент в хорошем качестве
    54 часа смотреть онлайн бесплатно в хорошем качестве


    Вы не можете начинать темы
    Вы не можете отвечать на сообщения
    Вы не можете редактировать свои сообщения
    Вы не можете удалять свои сообщения
    Вы не можете голосовать в опросах
    Вы не можете прикреплять файлы к сообщениям
    Вы можете скачивать файлы