Ссылка на приватное зеркало нашего сайта всего за 1$. Внимание количество ограничено!!!

2 сезон

iTunes

1 сезон

1

2 сезон

2 сезон

iTunes

1 сезон

RePack

30

Новинка

ВАЖНО

ИГРА 18+

pack

RePack

MK11
pack

Забери бонус

RePack

jed

!!Акция!!

Alien_Rage

RePack

fifa19

RePack

Assassins Creed: Odyssey

RePack

NEED FOR SPEED™ PAYBACK

4 сезон

9 сезон

Бесстыжие 9 сезон

Все сериалы

все сериалы на PB.wtf

RePack

FAR CRY 5
  

Что знает Оливия? / Оливия Киттеридж / Olive Kitteridge / Сезон: 1 / Серии: 1-4 из 4 (Лиза Холоденко) [2014, драма, HDTVRip 720p] [MVO] (Amedia) pb.wtf

Что знает Оливия? через торрент pb.wtf

Раздают: 1 [ 0 KB/s ]
Размер: 7.58 GB | Добавлен: 1 год 10 мес. назад | Торрент скачан:43 раза
Скачать  

02-01-2019 12:56 Что знает Оливия? Скачать торрент  


Что знает Оливия? | Оливия Киттеридж | Olive Kitteridge

Год выпуска: 2014
Страна: США
Жанр: драма
Продолжительность: ~ 00:58:00
Перевод: Профессиональный (многоголосый закадровый) | Amedia

Режиссёр: Лиза Холоденко
В ролях: Фрэнсис МакДорманд, Ричард Дженкинс, Джон Галлахер мл., Зои Кэзен, Билл Мюррэй, Марта Вейнрайт, Кен Чизман, Девин Друид, Аманда Гуд Хеннесси, Джон Т. Маллен
Описание: В основу сюжета взят одноименный роман американской писательницы Элизабет Строут о переосмыслении жизни людей, быт которых наполнен проблемами, конфликтами и трагедиями. Главная героиня Оливия Киттеридж – пенсионерка, некогда работавшая учительницей. Она несколько груба и строга, критически осуждает изменения, которые происходят в мире и в ее родном небольшом рыбацком поселении Кросби штата Мэн. Однако при этом женщина с безразличием относится ко всему тому, что происходит в жизни окружающих ее людей. Оливия лояльна к браку и мужу, который с одной стороны считает подобное отношение супруги благославением, а с другой стороны неким проклятием. Героиню не особо интересуют проблемы ее бывшего студента, потерявшего смысл жизни, и даже собственного давно повзрослевшего ребенка. Тем временем в маленьком городке далеко не все так тихо и мирно. Здесь процветает коррупция, незаконные сделки и прочие преступления.

Качество: HDTVRip 720p
Контейнер: MKV
Видео: h.264, 1280x720 (16:9), 23,976 fps, ~4000 kbps, 0.192 bit/pixel
Аудио 1: AC3, 48 kHz, 2 ch, 192 kbps - Rus
Аудио 2: AC3, 48 kHz, 6 ch, 384 kbps - Eng
Субтитры: Русские (Амедиа), английские
запись звука: xironfs
Cинхронизация звука и субтиров: qqss44
Субтитры: Amedia
Озвучка: SDI Media по заказу Amedia
Роли озвучивали: Марианна Шульц, Андрей Гриневич, Наталья Терешкова, Екатерина Семёнова, Александр Дасевич, Илья Хвостиков
Общее
Уникальный идентификатор : 218490186788351542132163575499967942086 (0xA45FADE8821E10259AE986DCF6DBCDC6)
Формат : Matroska
Версия формата : Version 2
Размер файла : 1,89 Гбайт
Продолжительность : 55 м.
Общий поток : 4906 Кбит/сек
Дата кодирования : UTC 2014-11-16 15:50:49
Программа кодирования : mkvmerge v7.2.0 ('On Every Street') 64bit built on Sep 13 2014 15:52:10
Библиотека кодирования : libebml v1.3.0 + libmatroska v1.4.1
DURATION : 00:52:20.543000000
NUMBER_OF_FRAMES : 914
NUMBER_OF_BYTES : 31373
_STATISTICS_WRITING_APP : mkvmerge v7.2.0 ('On Every Street') 64bit built on Sep 13 2014 15:52:10
_STATISTICS_WRITING_DATE_UTC : 2014-11-16 15:50:49
_STATISTICS_TAGS : BPS DURATION NUMBER_OF_FRAMES NUMBER_OF_BYTES

Видео
Идентификатор : 1
Формат : AVC
Формат/Информация : Advanced Video Codec
Профиль формата : High@L4.1
Параметр CABAC формата : Да
Параметр ReFrames формата : 5 кадров
Идентификатор кодека : V_MPEG4/ISO/AVC
Продолжительность : 55 м.
Битрейт : 4232 Кбит/сек
Ширина : 1280 пикселей
Высота : 720 пикселей
Соотношение сторон : 16:9
Режим частоты кадров : Постоянный
Частота кадров : 23,976 кадра/сек
Цветовое пространство : YUV
Субдискретизация насыщенности : 4:2:0
Битовая глубина : 8 бит
Тип развёртки : Прогрессивная
Бит/(Пиксели*Кадры) : 0.192
Размер потока : 1,63 Гбайт (86%)
Библиотека кодирования : x264 core 142 r2479 dd79a61
Настройки программы : cabac=1 / ref=5 / deblock=1:0:0 / analyse=0x3:0x113 / me=umh / subme=8 / psy=1 / psy_rd=1.00:0.00 / mixed_ref=1 / me_range=16 / chroma_me=1 / trellis=1 / 8x8dct=1 / cqm=0 / deadzone=21,11 / fast_pskip=1 / chroma_qp_offset=-2 / threads=18 / lookahead_threads=3 / sliced_threads=0 / nr=0 / decimate=1 / interlaced=0 / bluray_compat=0 / constrained_intra=0 / bframes=3 / b_pyramid=2 / b_adapt=2 / b_bias=0 / direct=3 / weightb=1 / open_gop=0 / weightp=2 / keyint=250 / keyint_min=23 / scenecut=40 / intra_refresh=0 / rc_lookahead=50 / rc=crf / mbtree=1 / crf=18.0 / qcomp=0.60 / qpmin=0 / qpmax=69 / qpstep=4 / ip_ratio=1.40 / aq=1:1.00
Язык : English
Default : Да
Forced : Нет
Коэффициенты матрицы : BT.709
DURATION : 00:55:05.386000000
NUMBER_OF_FRAMES : 79250
NUMBER_OF_BYTES : 1788116569
_STATISTICS_WRITING_APP : mkvmerge v7.2.0 ('On Every Street') 64bit built on Sep 13 2014 15:52:10
_STATISTICS_WRITING_DATE_UTC : 2014-11-16 15:50:49
_STATISTICS_TAGS : BPS DURATION NUMBER_OF_FRAMES NUMBER_OF_BYTES

Аудио #1
Идентификатор : 2
Формат : AC-3
Формат/Информация : Audio Coding 3
Расширение режима : CM (complete main)
Параметр Endianness формата : Big
Идентификатор кодека : A_AC3
Продолжительность : 55 м.
Вид битрейта : Постоянный
Битрейт : 192 Кбит/сек
Каналы : 2 канала
Расположение каналов : Front: L R
Частота : 48,0 КГц
Битовая глубина : 16 бит
Метод сжатия : С потерями
Размер потока : 75,7 Мбайт (4%)
Язык : Russian
Default : Да
Forced : Нет

Аудио #2
Идентификатор : 3
Формат : AC-3
Формат/Информация : Audio Coding 3
Расширение режима : CM (complete main)
Параметр Endianness формата : Big
Идентификатор кодека : A_AC3
Продолжительность : 55 м.
Вид битрейта : Постоянный
Битрейт : 384 Кбит/сек
Каналы : 6 каналов
Расположение каналов : Front: L C R, Side: L R, LFE
Частота : 48,0 КГц
Битовая глубина : 16 бит
Метод сжатия : С потерями
Размер потока : 151 Мбайт (8%)
Язык : English
Default : Нет
Forced : Нет

Текст #1
Идентификатор : 4
Формат : UTF-8
Идентификатор кодека : S_TEXT/UTF8
Идентификатор кодека/Информация : UTF-8 Plain Text
Язык : Russian
Default : Нет
Forced : Нет

Текст #2
Идентификатор : 5
Формат : UTF-8
Идентификатор кодека : S_TEXT/UTF8
Идентификатор кодека/Информация : UTF-8 Plain Text
Язык : English
Default : Нет
Forced : Нет
скриншот  скриншот  скриншот  
pb.wtf



Скачать Что знает Оливия? через торрент http://i64.fastpic.ru/big/2014/1117/96/640b6ab3ef07cb7f1fa10e672f58d496.png Скачать фильм Что знает Оливия? через торрент бесплантно в хорошем качестве Описание: В основу сюжета взят одноименный роман американской писательницы Элизабет Строут о переосмыслении жизни людей, быт которых ... 5 10 1
Торрент: Зарегистрирован [2019-01-02 12:56] · скачан: 43 раз
Статус: √ проверено
Размер: 7.58 GB
Как cкачать? Как скачать Что знает Оливия? через торрент | qTorrent

28-11-2019 20:33  

Отключить всю рекламу на сайте

    Дорогой пользователь! Огромная просьба, поблагодарите релизера, оцените раздачу и оставьте свои комментарий, если Вы скачали Что знает Оливия? через торрент бесплатно! Внесите свою лепту в развитие PiratBit!
    Комментировать посты могут только пользователи прошедшие не сложную регистрацию
    Показать сообщения:    

    Что знает Оливия? через торрент
    Скачать бесплатно Что знает Оливия?
    Что знает Оливия? скачать торрент
    Что знает Оливия? смотреть онлайн
    Cкачать фильм Что знает Оливия? бесплатно
    Что знает Оливия? скачать торрент в хорошем качестве
    Что знает Оливия? смотреть онлайн бесплатно в хорошем качестве


    Вы не можете начинать темы
    Вы не можете отвечать на сообщения
    Вы не можете редактировать свои сообщения
    Вы не можете удалять свои сообщения
    Вы не можете голосовать в опросах
    Вы не можете прикреплять файлы к сообщениям
    Вы можете скачивать файлы