новый адрес
Ссылка на приватное зеркало всего за 1$. Внимание количество ограничено!!!

iTunes

1+1

iTunes

мы

WEB-DL

1

iTunes

Чернобыль

iTunes

Ральф против интернета

Лицензия

ПШазам

Лицензия

Оно 2

Лицензия

30
pack

Вам бонус

ВАЖНО

!!Акция!!

Alien_RageХит недели

RePack

Resident Evil 21

ИГРА 18+

pack

RePack

jed

!!Акция!!

Alien_Rage

RePack

fifa19

RePack

Assassins Creed: Odyssey

RePack

NEED FOR SPEED™ PAYBACK

3 сезон

9 сезон

Бесстыжие 9 сезон

Все сериалы

все сериалы на PB.wtf

RePack

FAR CRY 5
Ребята, катастрофически не хватает 1900р. для оплаты серверов за Октябрь (всвязи с блокировками трафик упал в 3 раза), 1-2р., выручайте.
  

Черное зеркало: Брандашмыг / Black Mirror: Bandersnatch (Дэвид Слэйд) [2018, фантастика, триллер, драма, WEBRip-AVC] MVO [Profix Media] pb.wtf

Черное зеркало: Брандашмыг через торрент pb.wtf

Раздают: 2 [ 0 KB/s ]
Размер: 1.74 GB | Добавлен: 11 мес. назад | Торрент скачан:463 раза
Скачать  

02-01-2019 15:01 Черное зеркало: Брандашмыг Скачать торрент  

Черное зеркало: Брандашмыг / Black Mirror: Bandersnatch

Год выпуска: 2018
Страна: США, Великобритания
Жанр: фантастика, триллер, драма, детектив
Продолжительность: 01:33:12
Перевод: Профессиональный многоголосый | Profix Media
Примечание: Релиз без рекламы
Субтитры: Русские (полные), Английские (полные, SDH)
Режиссер: Дэвид Слэйд
В ролях:

Финн Уайтхед (Stefan Butler), Крэйг Паркинсон (Peter Butler), Элис Лоу (Dr. Haynes), Азим Чаудхри (Mohan Tucker), Уилл Поултер (Colin Ritman), Таллула Роуз Хэддон (Kitty), Катриона Нокс (Leslie), Пол Брэдли (Robin), Джонатан Арис (Crispin), А.Дж. Хотон (Young Stefan), Флер Кит (Mum), Лаура Эвелин (Pearl Ritman)
Описание:
1984 год. Молодой программист Стефан с многолетним чувством вины за смерть матери пытается написать компьютерную игру по фантастическому роману. Вскоре реальность искажается, создавая невообразимую путаницу в и без того нездоровом сознании парня.
Рейтинг:
rating
Качество: WEBRip-AVC
Формат: MKV
Видео: 1024x464 (2.40:1), 25,000 fps, x264 ~2 024 kbps avg, 0.170 bit/pixel
Аудио #1: 48 kHz, AC3 Dolby Digital, 2 (L,R) ch, ~192.00 kbps avg | RUS (Profix Media)
Аудио #2: 48 kHz, AC3 Dolby Digital, 3/2 (L,C,R,l,r) + LFE ch, ~448.00 kbps avg | ENG
«Брандашмыг» — самостоятельная часть сериала (5 сезона) «Черное зеркало», который Netflix выпустит 28 декабря 2018 года. Это интерактивный полнометражный фильм, где зрители смогут выбирать, как развивается сюжет и как ведут себя герои. Согласно источникам, для проекта было отснято более пяти часов материала.Уже после этого подписчикам стрим-сервиса станет доступен весь сезон.
Общее
Уникальный идентификатор : 224455647235100535783394644379013439863 (0xA8DC95D0F524C0F744CA13839EEF6177)
Полное имя : F:OlLanDGroupBlack.Mirror.Bandersnatch.2018.WEBRip(AVC).OlLanDGroup.mkv
Формат : Matroska
Версия формата : Version 4 / Version 2
Размер файла : 1,74 Гбайт
Продолжительность : 1 ч. 33 м.
Общий поток : 2666 Кбит/сек
Название фильма : Black.Mirror.Bandersnatch.2018 #TorpedoUK#
Дата кодирования : UTC 2019-01-02 14:31:20
Программа кодирования : mkvmerge v29.0.0 ('Like It Or Not') 64-bit
Библиотека кодирования : libebml v1.3.6 + libmatroska v1.4.9

Видео
Идентификатор : 1
Формат : AVC
Формат/Информация : Advanced Video Codec
Профиль формата : High@L4.1
Параметр CABAC формата : Да
Параметр ReFrames формата : 10 кадров
Идентификатор кодека : V_MPEG4/ISO/AVC
Продолжительность : 1 ч. 33 м.
Битрейт : 2024 Кбит/сек
Ширина : 1024 пикселя
Высота : 464 пикселя
Соотношение сторон : 2,2:1
Режим частоты кадров : Постоянный
Частота кадров : 25,000 кадров/сек
Цветовое пространство : YUV
Субдискретизация насыщенности : 4:2:0
Битовая глубина : 8 бит
Тип развёртки : Прогрессивная
Бит/(Пиксели*Кадры) : 0.170
Размер потока : 1,32 Гбайт (76%)
Библиотека кодирования : x264 core 146 r2538 121396c
Настройки программы : cabac=1 / ref=10 / deblock=1:-3:-2 / analyse=0x3:0x113 / me=umh / subme=10 / psy=1 / psy_rd=0.95:0.07 / mixed_ref=1 / me_range=48 / chroma_me=1 / trellis=2 / 8x8dct=1 / cqm=0 / deadzone=21,11 / fast_pskip=1 / chroma_qp_offset=-3 / threads=6 / lookahead_threads=1 / sliced_threads=0 / nr=0 / decimate=1 / interlaced=0 / bluray_compat=0 / constrained_intra=0 / bframes=11 / b_pyramid=2 / b_adapt=2 / b_bias=0 / direct=3 / weightb=1 / open_gop=0 / weightp=2 / keyint=250 / keyint_min=25 / scenecut=40 / intra_refresh=0 / rc_lookahead=40 / rc=2pass / mbtree=0 / bitrate=2024 / ratetol=1.0 / qcomp=0.60 / qpmin=0 / qpmax=69 / qpstep=4 / cplxblur=20.0 / qblur=0.5 / vbv_maxrate=50000 / vbv_bufsize=62500 / nal_hrd=none / filler=0 / ip_ratio=1.40 / pb_ratio=1.30 / aq=1:1.00
Язык : English
Default : Да
Forced : Нет

Аудио #1
Идентификатор : 2
Формат : AC-3
Формат/Информация : Audio Coding 3
Расширение режима : CM (complete main)
Параметр Endianness формата : Big
Идентификатор кодека : A_AC3
Продолжительность : 1 ч. 33 м.
Вид битрейта : Постоянный
Битрейт : 192 Кбит/сек
Каналы : 2 канала
Расположение каналов : Front: L R
Частота : 48,0 КГц
Частота кадров : 31,250 кадров/сек (1536 spf)
Битовая глубина : 16 бит
Метод сжатия : С потерями
Размер потока : 128 Мбайт (7%)
Заголовок : MVO [Kravets]
Язык : Russian
Default : Да
Forced : Нет

Аудио #2
Идентификатор : 3
Формат : AC-3
Формат/Информация : Audio Coding 3
Расширение режима : CM (complete main)
Параметр Endianness формата : Big
Идентификатор кодека : A_AC3
Продолжительность : 1 ч. 33 м.
Вид битрейта : Постоянный
Битрейт : 448 Кбит/сек
Каналы : 6 каналов
Расположение каналов : Front: L C R, Side: L R, LFE
Частота : 48,0 КГц
Частота кадров : 31,250 кадров/сек (1536 spf)
Битовая глубина : 16 бит
Метод сжатия : С потерями
Размер потока : 299 Мбайт (17%)
Заголовок : [Original]
Язык : English
Default : Нет
Forced : Нет

Текст #1
Идентификатор : 4
Формат : UTF-8
Идентификатор кодека : S_TEXT/UTF8
Идентификатор кодека/Информация : UTF-8 Plain Text
Продолжительность : 1 ч. 32 м.
Битрейт : 84 бит/сек
Count of elements : 1052
Размер потока : 56,9 Кбайт (0%)
Заголовок : Full
Язык : Russian
Default : Нет
Forced : Нет

Текст #2
Идентификатор : 5
Формат : UTF-8
Идентификатор кодека : S_TEXT/UTF8
Идентификатор кодека/Информация : UTF-8 Plain Text
Продолжительность : 1 ч. 29 м.
Битрейт : 50 бит/сек
Count of elements : 938
Размер потока : 33,1 Кбайт (0%)
Заголовок : Full
Язык : English
Default : Нет
Forced : Нет

Текст #3
Идентификатор : 6
Формат : UTF-8
Идентификатор кодека : S_TEXT/UTF8
Идентификатор кодека/Информация : UTF-8 Plain Text
Продолжительность : 1 ч. 31 м.
Битрейт : 54 бит/сек
Count of elements : 1101
Размер потока : 36,4 Кбайт (0%)
Заголовок : SDH
Язык : English
Default : Нет
Forced : Нет
скриншот   скриншот   скриншот   скриншот  
pb.wtf



Скачать Черное зеркало: Брандашмыг через торрент http://a.radikal.ru/a17/1812/f2/26541e79c465.jpg Скачать фильм Черное зеркало: Брандашмыг через торрент бесплантно в хорошем качестве Описание: 1984 год. Молодой программист Стефан с многолетним чувством вины за смерть матери пытается написать компьютерную игру по ... 6.8 10 10
Торрент: Зарегистрирован [2019-01-02 15:01] · скачан: 463 раз
Статус: T временная
Размер: 1.74 GB
Как cкачать? Как скачать Черное зеркало: Брандашмыг через торрент | qTorrent

% Раздел Тема Автор DL S | L
Фильмы (WEB-DL 720p, 1080p) [ 3.67 GB ] Черное зеркало: Брандашмыг / Black Mirror: Bandersnatch [2018 WEBRip 1080p] DUB [Пифагор] bober100 Скачать
1 | 0
Фильмы (WEB-DL 720p, 1080p) [ 3.83 GB ] Черное зеркало: Брандашмыг / Black Mirror: Bandersnatch [2018 WEBRip 1080p] MVO [LostFilm] bober100 Скачать
1 | 0
Фильмы 2018 [DVDrip, WEB-DLRip, HDrip] (DUB, MVO) [ 1.46 GB ] Черное зеркало: Брандашмыг / Black Mirror: Bandersnatch [2018 WEBRip] MVO [LostFilm] bober100 Скачать
1 | 0
Фильмы (WEB-DL 720p, 1080p) [ 3.54 GB ] Черное зеркало: Брандашмыг / Black Mirror: Bandersnatch [2018 социальная сатира WEBRip 1080p] [MVO] killermax2013 Скачать
1 | 0
T Фильмы (мультфильмы) cо спонсором показа (Новинки AVI/MKV) [ 12.02 GB ] Черное зеркало: Брандашмыг / Black Mirror: Bandersnatch [2018 WEBRip 720p] [Полная версия 5 часов] MVO [BaibaKo] bober100 Скачать
1 | 0
T Фильмы (мультфильмы) cо спонсором показа (Новинки AVI/MKV) [ 1.37 GB ] Черное зеркало: Брандашмыг / Black Mirror: Bandersnatch [2018 WEB-DLRip] [Line] killermax2013 Скачать
2 | 0
T Фильмы (мультфильмы) cо спонсором показа (Новинки AVI/MKV) [ 4 GB ] Черное зеркало: Брандашмыг / Black Mirror: Bandersnatch [2018 WEB-DL 1080p] DUB [Line] bober100 Скачать
1 | 0


Последний раз редактировалось: -Lexx- (2019-01-02 15:54), всего редактировалось 3 раз(а)

28-11-2019 20:33  

Отключить всю рекламу на сайте

02-01-2019 15:11 Черное зеркало: Брандашмыг Скачать торрент  

Фильм Чума !!! pb.wtf



02-01-2019 16:03 Черное зеркало: Брандашмыг Скачать торрент  

Ajks писал(а):

Фильм Чума !!!

Как то звучит это чума двусмысленно!pb.wtf



02-01-2019 17:57 Черное зеркало: Брандашмыг Скачать торрент  

Говно фильм,не пойму откуда такой рейтинг.pb.wtf



03-01-2019 13:47 Черное зеркало: Брандашмыг Скачать торрент  

Дима210206 писал(а):

Говно фильм,не пойму откуда такой рейтинг.

согласен,может и не говно но рейтинг явно завышен! поразмышлять над сюжетом я и сам люблю, но тут уж очень перегнули или хотели под Линча закосить!?pb.wtf



03-01-2019 17:55 Черное зеркало: Брандашмыг Скачать торрент  

Полтора часа на смарку((pb.wtf



04-01-2019 14:35 Черное зеркало: Брандашмыг Скачать торрент  

Что бы понять эту серию нужно посмотреть весь сериал "Черное зеркало" ССЫЛКА, а еще я бы отнес к серии - фильм Aпгpeйд ССЫЛКА ..pb.wtf



31-01-2019 15:08 Черное зеркало: Брандашмыг Скачать торрент  

Коротко, галимое дерьмо паранаидального дол...ба.pb.wtf



    Дорогой пользователь! Огромная просьба, поблагодарите релизера, оцените раздачу и оставьте свои комментарий, если Вы скачали Черное зеркало: Брандашмыг через торрент бесплатно! Внесите свою лепту в развитие PiratBit!
    Комментировать посты могут только пользователи прошедшие не сложную регистрацию
    Показать сообщения:    

    Черное зеркало: Брандашмыг через торрент
    Скачать бесплатно Черное зеркало: Брандашмыг
    Черное зеркало: Брандашмыг скачать торрент
    Черное зеркало: Брандашмыг смотреть онлайн
    Cкачать фильм Черное зеркало: Брандашмыг бесплатно
    Черное зеркало: Брандашмыг скачать торрент в хорошем качестве
    Черное зеркало: Брандашмыг смотреть онлайн бесплатно в хорошем качестве


    Вы не можете начинать темы
    Вы не можете отвечать на сообщения
    Вы не можете редактировать свои сообщения
    Вы не можете удалять свои сообщения
    Вы не можете голосовать в опросах
    Вы не можете прикреплять файлы к сообщениям
    Вы можете скачивать файлы