новый адрес
Мега распродажа FORZA HORIZON 4 ULTIMATE+ВСЕ DLC+ОНЛАЙН всего за 499р. 349 руб. (супер цена). Внимание количество ограничено!!!

iTunes

1+1

iTunes

мы

iTunes

1

iTunes

Чернобыль

iTunes

Ральф против интернета

Лицензия

ПШазам

Лицензия

Оно 2

Лицензия

30
pack

ВАЖНО

!!Акция!!

Alien_RageХит недели

RePack

Resident Evil 21

ИГРА 18+

pack

RePack

jed

!!Акция!!

Alien_Rage

RePack

fifa19

RePack

Assassins Creed: Odyssey

RePack

NEED FOR SPEED™ PAYBACK

3 сезон

9 сезон

Бесстыжие 9 сезон

Все сериалы

все сериалы на PB.wtf

RePack

FAR CRY 5
Ребята, катастрофически не хватает 1900р. для оплаты серверов за Октябрь (всвязи с блокировками трафик упал в 3 раза), 1-2р., выручайте.
  

Проводник (Илья Максимов) [2018 г., ужасы, триллер, WEB-DLRip, iTunes] pb.wtf

Проводник через торрент pb.wtf

Размер: 708 MB | Добавлен: 10 мес. назад | Торрент скачан:216 раз
Скачать  

02-01-2019 18:55 Проводник Скачать торрент  

Проводник
Год выпуска: 2018
Страна: Россия / Мотор Фильм Студия , Пропеллер Продакшн
Жанр: ужасы, триллер
Продолжительность: 01:26:17
Перевод: Не требуется Русский (iTunes)

Режиссер: Илья Максимов

rating

В ролях: Александра Бортич, Евгений Цыганов, Александр Робак, Вячеслав Разбегаев, Владимир Яглыч, Константин Мурзенко, Юрий Скулябин, Марта Тимофеева, Екатерина Рокотова, Василий Бочкарев

Описание: Главная героиня, девушка Катя, обладает мистическим даром: она видит призраков. Когда пропадает её сестра-близнец, девушка в одиночку бросается на поиски. В полиции настаивают, что сестры вообще
 не существует, что она - плод Катиного больного воображения. Однако в процессе поисков сестры Катя понимает, что в городе орудует серийный маньяк, и сестра - одна из его жертв. Еще есть надежда спасти ее, но в мрачном, полном тайн городе нельзя доверять никому, даже самой себе...

Качество: WEB-DLRip
Формат: AVI
Видео кодек: XviD
Аудио кодек: MP3
Видео: 640x272 (2.35:1), 25 fps, XviD build 50 ~1009 kbps avg, 0.23 bit/pixel
Аудио: 48 kHz, MPEG Layer 3, 2 ch, ~128.00 kbps avg
скриншот   скриншот   скриншот   скриншот   скриншот   скриншот   скриншот   скриншот  

Общее
Полное имя : F:\ФИЛЬМЫ\Проводник.2018.WEB-DLRip.avi
Формат : AVI
Формат/Информация : Audio Video Interleave
Размер файла : 708 Мбайт
Продолжительность : 1 ч. 26 м.
Общий поток : 1147 Кбит/сек
Программа кодирования : VirtualDubMod 1.5.10.3 | www.virtualdub-fr.org || (build 2550/release)
Библиотека кодирования : VirtualDubMod build 2550/release

Видео
Идентификатор : 0
Формат : MPEG-4 Visual
Профиль формата : Advanced Simple@L5
Настройки формата : BVOP1
Параметр BVOP формата : 1
Параметр QPel формата : Нет
Параметр GMC формата : Без точки перехода
Параметр матрицы формата : Default (MPEG)
Идентификатор кодека : XVID
Идентификатор кодека/Подсказка : XviD
Продолжительность : 1 ч. 26 м.
Битрейт : 1009 Кбит/сек
Ширина : 640 пикселей
Высота : 272 пикселя
Соотношение сторон : 2,35:1
Частота кадров : 25,000 кадров/сек
Цветовое пространство : YUV
Субдискретизация насыщенности : 4:2:0
Битовая глубина : 8 бит
Тип развёртки : Прогрессивная
Метод сжатия : С потерями
Бит/(Пиксели*Кадры) : 0.232
Размер потока : 623 Мбайт (88%)
Библиотека кодирования : XviD 1.2.1 (UTC 2008-12-04)

Аудио
Идентификатор : 1
Формат : MPEG Audio
Версия формата : Version 1
Профиль формата : Layer 3
Настройки формата : Joint stereo
Идентификатор кодека : 55
Идентификатор кодека/Подсказка : MP3
Продолжительность : 1 ч. 26 м.
Вид битрейта : Постоянный
Битрейт : 128 Кбит/сек
Каналы : 2 канала
Частота : 48,0 КГц
Частота кадров : 41,667 кадра/сек (1152 SPF)
Метод сжатия : С потерями
Размер потока : 79,0 Мбайт (11%)
Выравнивание : Соединение по промежуткам
Продолжительность промежутка : 40 мс. (1,00 видеокадр)
Время предзагрузки промежутка : 504 мс.
Библиотека кодирования : LAME3.99r
Настройки программы : -m j -V 4 -q 2 -lowpass 17 -b 128

pb.wtf



Скачать Проводник через торрент http://pic1.kartinco.top/images/12/s74g5.jpg Скачать фильм Проводник через торрент бесплантно в хорошем качестве Описание: Главная героиня, девушка Катя, обладает мистическим даром: она видит призраков. Когда пропадает её сестра-близнец, девушка в ... 10 10 6
Торрент: Зарегистрирован [2019-01-02 18:55] · скачан: 216 раз
Статус: √ проверено
Размер: 708 MB
Как cкачать? Как скачать Проводник через торрент | qTorrent

% Раздел Тема Автор DL S | L
Зарубежные сериалы [ 17.18 GB ] Посредник / Проводник / The InBetween / Сезон: 1 / Серии: 1-10 из 10 [2019 WEB-DL 720p] MVO [TVShows] bober100 Скачать
2 | 0
Зарубежные сериалы [ 7.13 GB ] Посредник / Проводник / The InBetween / Сезон: 1 / Серии: 1-10 из 10 [2019 WEB-DLRip] MVO [TVShows] bober100 Скачать
2 | 0
Зарубежные сериалы [ 31.17 GB ] Посредник / Проводник / The InBetween / Сезон: 1 / Серии: 1-10 из 10 [2019 WEB-DL 1080p] MVO [TVShows] bober100 Скачать
1 | 0
Наши новые фильмы 2018-2019 [ 1.37 GB ] Проводник [2018 WEB-DLRip-AVC] - ExKinoRay Enigma2010 Скачать
1 | 0
Наши новые фильмы 2018-2019 [ 1.28 GB ] Проводник [2018 WEB-DLRip-AVC] bober100 Скачать
1 | 0
Наши фильмы (HD, WEB-DL 720p, 1080p) [ 2.95 GB ] Проводник [2018 WEB-DL 1080p] bober100 Скачать
1 | 0
Наши новые фильмы 2018-2019 [ 1.46 GB ] Проводник [2018 WEB-DLRip] bober100 Скачать
6 | 0


>> Регистрируемся здесь <<






Отзывы и комментарии о схеме читаем и пишем здесь: ---> Отзывы и комментарии о схеме

Новые благодарочки в телеграм довольных пользователей:
скриншот   скриншот   скриншот   скриншот   скриншот

07-01-2019 03:04 Проводник Скачать торрент  

Хрень полная!!!pb.wtf



07-01-2019 16:21 Проводник Скачать торрент  

дешевая постановка.игра актеришек никчемная.не верю ни одному слову и действию этих артистов.когда-же закончат снимать этот мусор.pb.wtf



    Дорогой пользователь! Огромная просьба, поблагодарите релизера, оцените раздачу и оставьте свои комментарий, если Вы скачали Проводник через торрент бесплатно! Внесите свою лепту в развитие PiratBit!
    Комментировать посты могут только пользователи прошедшие не сложную регистрацию
    Показать сообщения:    

    Проводник через торрент
    Скачать бесплатно Проводник
    Проводник скачать торрент
    Проводник смотреть онлайн
    Cкачать фильм Проводник бесплатно
    Проводник скачать торрент в хорошем качестве
    Проводник смотреть онлайн бесплатно в хорошем качестве


    Вы не можете начинать темы
    Вы не можете отвечать на сообщения
    Вы не можете редактировать свои сообщения
    Вы не можете удалять свои сообщения
    Вы не можете голосовать в опросах
    Вы не можете прикреплять файлы к сообщениям
    Вы можете скачивать файлы